imdb
rating

6.6
Due Date

Due Date (2010)

Comedy, Drama

Full description
quality   screener cam dvdrip telesync

Due Date 2010 UNRATED DVDRip XviD - Larceny

Size 1.293 GB   0 seeders     Added 2011-01-24 13:16:32

Stream torrent
Starting‥ You need BitLord! Get it from BitLord.com
To download or stream you need BitLord. Visit them at BitLord.com
Format                           : AVI
Format/Info                      : Audio Video Interleave
Format profile                   : OpenDML
File size                        : 788 MiB
Duration                         : 1h 59mn
Overall bit rate                 : 1 722 Kbps
Writing application              : VirtualDubMod 1.5.10.2 (build 2542/release)
Writing library                  : VirtualDubMod build 2542/release
Original source form             : MAX TORRENTZ
Copyright                        : SIGISMUNT

Video
ID                               : 0
Format                           : MPEG-4 Visual
Format profile                   : AdvancedSimple@L5
Format settings, BVOP            : Yes
Format settings, QPel            : No
Format settings, GMC             : No warppoints
Format settings, Matrix          : Custom
Codec ID                         : XVID
Codec ID/Hint                    : XviD
Duration                         : 1h 59mn
Bit rate                         : 1 527 Kbps
Width                            : 720 pixels
Height                           : 304 pixels
Display aspect ratio             : 2.35:1
Frame rate                       : 23.976 fps
Resolution                       : 24 bits
Colorimetry                      : 4:2:0
Scan type                        : Progressive
Bits/(Pixel*Frame)               : 0.291
Stream size                      : 751 MiB (89%)
Writing library                  : XviD 1.2.1 (UTC 2008-12-04)

Audio
ID                               : 1
Format                           : MPEG Audio
Format version                   : Version 1
Format profile                   : Layer 3
Codec ID                         : 55
Codec ID/Hint                    : MP3
Duration                         : 1h 59mn
Bit rate mode                    : Constant
Bit rate                         : 192 Kbps
Channel(s)                       : 2 channels
Sampling rate                    : 48.0 KHz
Resolution                       : 16 bits
Stream size                      : 71 MiB (11%)
Alignment                        : Aligned on interleaves
Interleave, duration             : 522 ms (12.51 video frames)
Interleave, preload duration     : 216 ms
Writing library                  : LAME3.98.2
 
http://www.imdb.com/title/tt1231583/

Genre: Comedy

Storyline

 High-strung father-to-be Peter Highman is forced to hitch a ride with aspiring actor Ethan Tremblay on a road trip in order to make it to his child's birth on time.

cast:

Robert Downey Jr. ...  	Peter Highman
Zach Galifianakis ... 	Ethan Tremblay
Michelle Monaghan ... 	Christine Highman
Juliette Lewis 	... 	HeidiDanny McBride 		
Jamie Foxx 	... 	Jim
Alan Arkin 		
RZA 	... 	Marshall
Matt Walsh 		
James Martin Kelly ... 	Chuck
Mimi Kennedy 	... 	Rosie
Rhoda Griffis 	... 	Woman at Airport
Reagan Michelle ... 	TSA Agent / Driver
Emily Wagner 	... 	Flight Attendent
Sharon Morris 	... 	Airport X-Ray 
Due Date 2010 UNRATED DVDRip XviD - Larceny.avi 1.284 GB
Due Date sample.avi 8.974 MB
Important information about the subtitle files.txt 1.477 KB
Gathering some info...

Register and log in Isohunt and see no captcha anymore!

4000 symbols left
Hash E282AE4393A9A2CC843A58FD73C6D17F579B3C18

Related torrents for "Due Date 2010 UNRATED DVDRip XviD - Larceny"

Torrent search:

dvdrip 2010