imdb
rating

7.7
Harry Potter and the Deathly Hallows: Part 1

Harry Potter and the Deathly Hallows: Part 1 (2010)

Adventure, Family, Fantasy

Full description

Harry Potter and the Deathly Hallows 2010 2010 DvDRiP XviD - MAXSPEED

Size 1.169 GB   0 seeders     Added 2011-01-24 13:22:42

Stream torrent
Starting‥ You need BitLord! Get it from BitLord.com
To download or stream you need BitLord. Visit them at BitLord.com
Format                           : AVI
Format/Info                      : Audio Video Interleave
Format profile                   : OpenDML
File size                        : 898 MiB
Duration                         : 2h 26mn
Overall bit rate                 : 1 722 Kbps
Writing application              : VirtualDubMod 1.5.10.2 (build 2542/release)
Writing library                  : VirtualDubMod build 2542/release
Original source form             : MAX TORRENTZ
Copyright                        : SIGISMUNT

Video
ID                               : 0
Format                           : MPEG-4 Visual
Format profile                   : AdvancedSimple@L5
Format settings, BVOP            : Yes
Format settings, QPel            : No
Format settings, GMC             : No warppoints
Format settings, Matrix          : Custom
Codec ID                         : XVID
Codec ID/Hint                    : XviD
Duration                         : 2h 26mn
Bit rate                         : 1 527 Kbps
Width                            : 720 pixels
Height                           : 304 pixels
Display aspect ratio             : 2.35:1
Frame rate                       : 23.976 fps
Resolution                       : 24 bits
Colorimetry                      : 4:2:0
Scan type                        : Progressive
Bits/(Pixel*Frame)               : 0.291
Stream size                      : 731 MiB (89%)
Writing library                  : XviD 1.2.1 (UTC 2008-12-04)

Audio
ID                               : 1
Format                           : MPEG Audio
Format version                   : Version 1
Format profile                   : Layer 3
Codec ID                         : 55
Codec ID/Hint                    : MP3
Duration                         : 2h 26mn
Bit rate mode                    : Constant
Bit rate                         : 192 Kbps
Channel(s)                       : 2 channels
Sampling rate                    : 48.0 KHz
Resolution                       : 16 bits
Stream size                      : 71 MiB (11%)
Alignment                        : Aligned on interleaves
Interleave, duration             : 522 ms (12.51 video frames)
Interleave, preload duration     : 216 ms
Writing library                  : LAME3.98.2
 
http://www.imdb.com/title/tt0926084/

Genres: Adventure | Fantasy | Mystery

Storyline

 Voldemort's power is growing stronger. He now has control over the Ministry of Magic and Hogwarts. Harry, Ron, and Hermione decide to finish Dumbledore's work and find the rest of the Horcruxes to defeat the Dark Lord. But little hope remains for the Trio, and the rest of the Wizarding World, so everything they do must go as planned.

cast:

Emma Watson   	 ...  	Hermione Granger
Tom Felton 	... 	Draco Malfoy
Daniel Radcliffe ... 	Harry Potter
Ralph Fiennes 	... 	Lord Voldemort
Helena Bonham Carter... Bellatrix Lestrange
Alan Rickman 	... 	Severus Snape
Clémence Poésy 	... 	Fleur Delacour
Bill Nighy 	... 	Rufus Scrimgeour
Jason Isaacs 	... 	Lucius Malfoy
Bonnie Wright 	... 	Ginny Weasley
Rupert Grint 	... 	Ron Weasley
Michael Gambon 	... 	Albus Dumbledore
Maggie Smith 	... 	Minerva McGonagall
John Hurt 	... 	Mr. Ollivander
Rhys Ifans 	... 	Xenophilius Lovegood 
Harry Potter and the Deathly Hallows 2010 2010 DvDRiP XviD - MAXSPEED.avi 1.161 GB
Harry Potter and the Deathly Hallows Part 1 sample.avi 8.118 MB
Important information about the subtitle files.txt 1.477 KB
Gathering some info...

Register and log in Isohunt and see no captcha anymore!

4000 symbols left
Hash AB14BC8CF122B243CE50E0D8E04376CD14528B27

Related torrents for "Harry Potter and the Deathly Hallows 2010 2010 DvDRiP XviD - MAXSPEED"

Torrent search:

dvdrip 2010