Season Of The Witch 2010 TS READNFO XViD - IMAGiNE.torrent

Size 1.101 GB   0 seeders     Added 2011-01-24 13:38:20

Stream torrent
Starting‥ You need BitLord! Get it from 1BitLord.com
To download or stream you need BitLord. Visit them at BitLord.com
File:: Season Of The Witch 2010 TS READNFO XViD - IMAGiNE

Video Source:: ....Team Serenity. Killin it, thx

Audio Source:: ....own, thx matey

Language::English

Genre::Adventure | Drama | Fantasy

IMDB::http://www.imdb.com/title/tt0479997/


A 14th century Crusader returns to a homeland devastated by the Black Plague. A beleaguered church, deeming sorcery the culprit of the plague, commands the two knights to transport an accused witch to a remote abbey, where monks will perform a ritual in hopes of ending the pestilence. A priest, a grieving knight, a disgraced itinerant and a headstrong youth who can only dream of becoming a knight join a mission troubled by mythically hostile wilderness and fierce contention over the fate of the girl. When the embattled party arrives at the abbey, a horrific discovery jeopardises the knight's pledge to ensure the girl fair treatment, and pits them against an inexplicably powerful and destructive force. 



Specs::



General



Format : AVI

Format/Info : Audio Video Interleave

Duration : 1h 35mn

Overall bit rate : 1 761 Kbps

Writing application : VirtualDubMod 1.5.10.2 (build 2540/release)

Writing library : VirtualDubMod build 2540/release



Video

ID : 0

Format : MPEG-4 Visual

Format profile : Advanced Simple@L5

Format settings, BVOP : Yes

Format settings, QPel : No

Format settings, GMC : No warppoints

Format settings, Matrix : Default (H.263)

Muxing mode : Packed bitstream

Codec ID : XVID

Codec ID/Hint : XviD

Duration : 1h 35mn

Bit rate : 1 495 Kbps

Width : 720 pixels

Height : 306 pixels

Display aspect ratio : 2.35:1

Frame rate : 25.000 fps

Color space : YUV

Chroma subsampling : 4:2:0

Bit depth : 8 bits

Scan type : Progressive

Bits/(Pixel*Frame) : 0.271

Stream size : 1.16 GiB (85%)

Writing library : XviD 1.2.1 (UTC 2008-12-04)



Audio

ID : 1

Format : MPEG Audio

Format version : Version 1

Format profile : Layer 3

Codec ID : 55

Codec ID/Hint : MP3

Duration : 1h 35mn

Bit rate mode : Constant

Bit rate : 256 Kbps

Channel(s) : 2 channels

Sampling rate : 44.1 KHz

Stream size : 204 MiB (15%)

Alignment : Split accross interleaves

Interleave, duration : 40 ms (1.00 video frame)

Interleave, preload duration : 500 ms



::Why Complain? Whats Free Is Free::



::iNK is currently a free agent looking for work, if you would like iNK's touch, give me a email at: ...digital.ink@live.com or MSN add me.



::We are always looking for friends with unreleased DVD's, Screeners, R5's, Audio, Cams, Silvers,

...and any other good sources you may have to offer - contact us: blackindians@hushmail.com


Season Of The Witch 2010 TS READNFO XViD - IMAGiNE.avi 1.101 GB
Season Of The Witch 2010 TS READNFO XViD - IMAGiNE.nfo 4.858 KB
Season of the Witch Official Trailer [HD] 136.693 KB
Gathering some info...

Register and log in Isohunt and see no captcha anymore!

4000 symbols left
Hash FAC64F4297E45DE1242FC3B902D4C839DEA7C6AD

Related torrents for "Season Of The Witch 2010 TS READNFO XViD - IMAGiNE.torrent"

Torrent search:

telesync 2010