imdb
rating

6.2
No Strings Attached

No Strings Attached (2011)

Comedy, Romance

Full description
quality   dvdrip telesync

NO STRINGS ATTACHED 2011 ENG XViD AVI

Size 1.131 GB   0 seeders     Added 2011-01-25 03:49:53

Stream torrent
Starting‥ You need BitLord! Get it from BitLord.com
To download or stream you need BitLord. Visit them at BitLord.com
NO STRINGS ATTACHED 2011 ENG XViD AVI

Format                           : AVI
Format/Info                      : Audio Video Interleave
Format profile                   : OpenDML
File size                        : 1.43 GiB
Duration                         : 2h 28mn
Overall bit rate                 : 1 381 Kbps
Writing application              : AVI-Mux GUI 1.17.8.3, Feb 16 201019:42:50

Video
ID                               : 0
Format                           : MPEG-4 Visual
Format profile                   : AdvancedSimple@L5
Format settings, BVOP            : Yes
Format settings, QPel            : No
Format settings, GMC             : No warppoints
Format settings, Matrix          : Default (H.263)
Muxing mode                      : Packed bitstream
Codec ID                         : XVID
Codec ID/Hint                    : XviD
Duration                         : 2h 28mn
Bit rate                         : 1 185 Kbps
Width                            : 640 pixels
Height                           : 272 pixels
Display aspect ratio             : 2.35:1
Frame rate                       : 23.976 fps
Resolution                       : 24 bits
Colorimetry                      : 4:2:0
Scan type                        : Progressive
Bits/(Pixel*Frame)               : 0.284
Stream size                      : 1.23 GiB (86%)
Writing library                  : XviD 57

Audio
ID                               : 1
Format                           : MPEG Audio
Format version                   : Version 1
Format profile                   : Layer 3
Codec ID                         : 55
Codec ID/Hint                    : MP3
Duration                         : 2h 28mn
Bit rate mode                    : Constant
Bit rate                         : 192 Kbps
Channel(s)                       : 2 channels
Sampling rate                    : 48.0 KHz
Resolution                       : 16 bits
Stream size                      : 203 MiB (14%)
Alignment                        : Aligned on interleaves
Interleave, duration             : 628 ms (15.07 video frames)
Interleave, preload duration     : 216 ms
Title                            : no strings attached
Writing library                  : LAME3.98.2

Sources: Original DVD+MP3 audio (perfect sync with additional 100% volume) sample included,enjoy
NO STRINGS ATTACHED 2011 ENG XViD AVI.avi 1.131 GB
NO STRINGS ATTACHED 2011 ENG XViD AVI.nfo 4.858 KB
Subs[ENG].srt 136.693 KB
Gathering some info...

Register and log in Isohunt and see no captcha anymore!

4000 symbols left
Hash 85DBCCA63F0018AA473C3C94AD6777B0E7EECE1E

Related torrents for "NO STRINGS ATTACHED 2011 ENG XViD AVI"

Torrent search:

english 2011