imdb
rating

7.6
Company

Company (2011)

Music

Full description

The Company Men 2011 DVDRip XviD-MAX

Size 867.047 MB   0 seeders     Added 2011-01-25 14:17:03

Stream torrent
Starting‥ You need BitLord! Get it from BitLord.com
10
To download or stream you need BitLord. Visit them at BitLord.com

Format : AVI
Format/Info : Audio Video Interleave
File size : 842 MiB
Duration : 1h 49mn
Overall bit rate : 1 184 Kbps
Writing application : VirtualDubMod 1.5.10.2 (build 2540/release)
Writing library : VirtualDub build 32839/release

Video
ID : 0
Format : MPEG-4 Visual
Format profile : Advanced Simple@L5
Format settings, BVOP : Yes
Format settings, QPel : No
Format settings, GMC : No warppoints
Format settings, Matrix : Custom
Codec ID : XVID
Codec ID/Hint : XviD
Duration : 1h 49mn
Bit rate : 1 042 Kbps
Width : 692 pixels
Height : 294 pixels
Display aspect ratio : 2.35:1
Frame rate : 23.976 fps
Color space : YUV
Chroma subsampling : 4:2:0
Bit depth : 8 bits
Scan type : Progressive
Bits/(Pixel*Frame) : 0.214
Stream size : 782 MiB (88%)
Writing library : XviD 1.2.1 (UTC 2008-12-04)

Audio
ID : 1
Format : MPEG Audio
Format version : Version 1
Format profile : Layer 3
Mode : Joint stereo
Mode extension : MS Stereo
Codec ID : 55
Codec ID/Hint : MP3
Duration : 1h 49mn
Bit rate mode : Variable
Bit rate : 128 Kbps
Channel(s) : 2 channels
Sampling rate : 48.0 KHz
Stream size : 93.2 MiB (11%)
Alignment : Aligned on interleaves
Interleave, duration : 24 ms (0.58 video frame)
Interleave, preload duration : 142 ms
Writing library : LAME3.90.
Encoding settings : -m j -V 4 -q 2 -lowpass 17.6 --abr 128

http://www.imdb.com/title/tt1172991/


Users: (1,267 votes) 15 reviews | Critics: 39 reviews Metascore: 72/100 (based on 28 reviews from Metacritic.com)

Storyline

When the GTX Corporation must cut jobs to improve the company's balance sheet during the 2010 recession, thousands of employees will take the hit, like Bobby Walker (Ben Affleck). Bobby learns the real life consequences of not having a job. Not only does he see a change to his family lifestyle, and the loss of his home, but also his feelings of self-worth. 

Director:
John Wells
Writer:
John Wells
Stars:
Ben Affleck, Chris Cooper and Tommy Lee Jones
The Company Men 2011 DVDRip XviD-MAX.avi 862.434 MB
The Company Men sample.avi 4.614 MB
tracked_and_downloaded_form_torrentday.com.txt 42 B
Gathering some info...

Register and log in Isohunt and see no captcha anymore!

4000 symbols left
Hash 9C50874DCCD1CA27B2A032EBE693D32BE681908F

Related torrents for "The Company Men 2011 DVDRip XviD-MAX"

Torrent search:

dvdrip 2011