imdb
rating

6.3
The Chronicles of Narnia: The Voyage of the Dawn Treader

The Chronicles of Narnia: The Voyage of the Dawn Treader (2010)

Adventure, Fantasy, Family

Full description

The Chronicles of Narnia 2010 DVDRip XviD AC3-ViSiON

Size 1.32 GB   0 seeders     Added 2011-01-26 23:06:24

Stream torrent
Starting‥ You need BitLord! Get it from BitLord.com
To download or stream you need BitLord. Visit them at BitLord.com
Format                           : AVI
Format/Info                      : Audio Video Interleave
Format profile                   : OpenDML
File size                        : 761 MiB
Duration                         : 1h 53mn
Overall bit rate                 : 1 722 Kbps
Writing application              : VirtualDubMod 1.5.10.2 (build 2542/release)
Writing library                  : VirtualDubMod build 2542/release
Original source form             : MAX TORRENTZ
Copyright                        : SIGISMUNT

Video
ID                               : 0
Format                           : MPEG-4 Visual
Format profile                   : AdvancedSimple@L5
Format settings, BVOP            : Yes
Format settings, QPel            : No
Format settings, GMC             : No warppoints
Format settings, Matrix          : Custom
Codec ID                         : XVID
Codec ID/Hint                    : XviD
Duration                         : 1h 53mn
Bit rate                         : 1 527 Kbps
Width                            : 720 pixels
Height                           : 304 pixels
Display aspect ratio             : 2.35:1
Frame rate                       : 23.976 fps
Resolution                       : 24 bits
Colorimetry                      : 4:2:0
Scan type                        : Progressive
Bits/(Pixel*Frame)               : 0.291
Stream size                      : 769 MiB (89%)
Writing library                  : XviD 1.2.1 (UTC 2008-12-04)

Audio
ID                               : 1
Format                           : MPEG Audio
Format version                   : Version 1
Format profile                   : Layer 3
Codec ID                         : 55
Codec ID/Hint                    : MP3
Duration                         : 1h 53mn
Bit rate mode                    : Constant
Bit rate                         : 192 Kbps
Channel(s)                       : 2 channels
Sampling rate                    : 48.0 KHz
Resolution                       : 16 bits
Stream size                      : 70 MiB (11%)
Alignment                        : Aligned on interleaves
Interleave, duration             : 522 ms (12.51 video frames)
Interleave, preload duration     : 216 ms
Writing library                  : LAME3.98.2

http://www.imdb.com/title/tt0980970/

Genres: Adventure | Family | Fantasy 
(MPAA) Rated PG for some frightening images and sequences of fantasy action.

Storyline

Lucy and Edmund Pevensie return to Narnia with their cousin Eustace where they meet up with Prince Caspian 

for a trip across the sea aboard the royal ship The Dawn Treader. Along the way they encounter dragons, 

dwarves, merfolk, and a band of lost warriors before reaching the edge of the world. 

cast:

Ben Barnes 	... 	King Caspian
Skandar Keynes 	... 	Edmund Pevensie
Georgie Henley 	... 	Lucy Pevensie
Will Poulter 	... 	Eustace Clarence Scrubb
Laura Brent 	... 	Lilliandil
Simon Pegg 	... 	Reepicheep (voice)
Gary Sweet 	... 	Lord Drinian
Arthur Angel 	... 	Rhince
Tony Nixon 	... 	Rynelf
Shane Rangi 	... 	Tavros the Minotaur
Colin Moody 	... 	Pug
Terry Norris 	... 	Lord Bern
David Vallon 	... 	Governor Gumpas
Bruce Spence 	... 	Lord Rhoop
Bille Brown 	... 	Coriakin 
Important information about the subtitle files.txt 1.477 KB
subtitles/Portuguese[Sub].srt 70.578 KB
subtitles/Spanish[Sub].srt 122.762 KB
Gathering some info...

Register and log in Isohunt and see no captcha anymore!

4000 symbols left
Hash AF2B2CE478186E9C4EC1718BE17494B9010BD3E9

Related torrents for "The Chronicles of Narnia 2010 DVDRip XviD AC3-ViSiON"

Torrent search:

dvdrip 2010