imdb
rating

6.0
The Tourist

The Tourist (2010)

Action, Thriller, Romance

Full description

The Tourist 2010 DVDRip XviD AC3-ViSiON

Size 1.273 GB   0 seeders     Added 2011-01-26 23:10:27

Stream torrent
Starting‥ You need BitLord! Get it from BitLord.com
To download or stream you need BitLord. Visit them at BitLord.com
Format                           : AVI
Format/Info                      : Audio Video Interleave
Format profile                   : OpenDML
File size                        : 737 MiB
Duration                         : 1h 43mn
Overall bit rate                 : 1 722 Kbps
Writing application              : VirtualDubMod 1.5.10.2 (build 2542/release)
Writing library                  : VirtualDubMod build 2542/release
Original source form             : MAX TORRENTZ
Copyright                        : SIGISMUNT

Video
ID                               : 0
Format                           : MPEG-4 Visual
Format profile                   : AdvancedSimple@L5
Format settings, BVOP            : Yes
Format settings, QPel            : No
Format settings, GMC             : No warppoints
Format settings, Matrix          : Custom
Codec ID                         : XVID
Codec ID/Hint                    : XviD
Duration                         : 1h 43mn
Bit rate                         : 1 527 Kbps
Width                            : 720 pixels
Height                           : 304 pixels
Display aspect ratio             : 2.35:1
Frame rate                       : 23.976 fps
Resolution                       : 24 bits
Colorimetry                      : 4:2:0
Scan type                        : Progressive
Bits/(Pixel*Frame)               : 0.291
Stream size                      : 648 MiB (89%)
Writing library                  : XviD 1.2.1 (UTC 2008-12-04)

Audio
ID                               : 1
Format                           : MPEG Audio
Format version                   : Version 1
Format profile                   : Layer 3
Codec ID                         : 55
Codec ID/Hint                    : MP3
Duration                         : 1h 43mn
Bit rate mode                    : Constant
Bit rate                         : 192 Kbps
Channel(s)                       : 2 channels
Sampling rate                    : 48.0 KHz
Resolution                       : 16 bits
Stream size                      : 70 MiB (11%)
Alignment                        : Aligned on interleaves
Interleave, duration             : 522 ms (12.51 video frames)
Interleave, preload duration     : 216 ms
Writing library                  : LAME3.98.2

http://www.imdb.com/title/tt1243957/

Genres: Drama | Thriller 

Storyline

Revolves around Frank, an American tourist visiting Italy to mend a broken heart. Elise is an extraordinary woman who deliberately crosses his path. 

cast:

Angelina Jolie 	... 	Elise Clifton-Ward
Johnny Depp 	... 	Frank Taylor
Paul Bettany 	... 	Acheson
Timothy Dalton 	... 	Jones
Steven Berkoff 	... 	Ivan Demidov
Rufus Sewell 	... 	The Englishman
Bruno Wolkowitch ... 	French Sergeant
Mhamed Arezki 	... 	French Courier

Rest of cast listed alphabetically:

Ralf Moeller 		
Raoul Bova 		
Christian De Sica ... 	Lombardi
Igor Jijikine 	... 	Demidov's Thug
Clément Sibony 	... 	Undercover Cop #2
Julien Baumgartner ... 	French Officer #2
François Vincentelli ...Undercover Cop #1 
Important information about the subtitle files.txt 1.477 KB
subtitles/Portuguese[Sub].srt 70.578 KB
subtitles/Spanish[Sub].srt 122.762 KB
Gathering some info...

Register and log in Isohunt and see no captcha anymore!

4000 symbols left
Hash 8316D68BF6097C37EC6292890D0353A5709C5D44

Related torrents for "The Tourist 2010 DVDRip XviD AC3-ViSiON"

Torrent search:

dvdrip 2010