imdb
rating

6.3
The Warrior's Way

The Warrior's Way (2010)

Action, Adventure, Fantasy, Thriller, Western

Full description
quality   dvdrip cam x264 telesync ppvr

The Warriors Way 2010 DVDRip XviD AC3-ViSiON

Size 1.338 GB   0 seeders     Added 2011-01-26 23:11:57

Stream torrent
Starting‥ You need BitLord! Get it from BitLord.com
To download or stream you need BitLord. Visit them at BitLord.com
Format                           : AVI
Format/Info                      : Audio Video Interleave
Format profile                   : OpenDML
File size                        : 780 MiB
Duration                         : 1h 40mn
Overall bit rate                 : 1 722 Kbps
Writing application              : VirtualDubMod 1.5.10.2 (build 2542/release)
Writing library                  : VirtualDubMod build 2542/release
Original source form             : MAX TORRENTZ
Copyright                        : SIGISMUNT

Video
ID                               : 0
Format                           : MPEG-4 Visual
Format profile                   : AdvancedSimple@L5
Format settings, BVOP            : Yes
Format settings, QPel            : No
Format settings, GMC             : No warppoints
Format settings, Matrix          : Custom
Codec ID                         : XVID
Codec ID/Hint                    : XviD
Duration                         : 1h 40mn
Bit rate                         : 1 527 Kbps
Width                            : 720 pixels
Height                           : 304 pixels
Display aspect ratio             : 2.35:1
Frame rate                       : 23.976 fps
Resolution                       : 24 bits
Colorimetry                      : 4:2:0
Scan type                        : Progressive
Bits/(Pixel*Frame)               : 0.291
Stream size                      : 769 MiB (89%)
Writing library                  : XviD 1.2.1 (UTC 2008-12-04)

Audio
ID                               : 1
Format                           : MPEG Audio
Format version                   : Version 1
Format profile                   : Layer 3
Codec ID                         : 55
Codec ID/Hint                    : MP3
Duration                         : 1h 40mn
Bit rate mode                    : Constant
Bit rate                         : 192 Kbps
Channel(s)                       : 2 channels
Sampling rate                    : 48.0 KHz
Resolution                       : 16 bits
Stream size                      : 70 MiB (11%)
Alignment                        : Aligned on interleaves
Interleave, duration             : 522 ms (12.51 video frames)
Interleave, preload duration     : 216 ms
Writing library                  : LAME3.98.2

http://www.imdb.com/title/tt1032751/

Genres: Action | Fantasy | Western 

Storyline

A warrior-assassin is forced to hide in a small town in the American Badlands after refusing a mission. 

cast:

Dong-gun Jang 	... 	Yang
Kate Bosworth 	... 	Lynne
Geoffrey Rush 	... 	Ron
Danny Huston 	... 	Colonel
Tony Cox 	... 	Eight-Ball
Lung Ti 	... 	Saddest Flute
Analin Rudd 	... 	Baby April
Markus Hamilton ... 	Baptiste
Rod Lousich 	... 	Craig
Matt Gillanders ... 	Geyser
Christina Asher ... 	Esmerelda
Jed Brophy 	... 	Jacques
Carl Bland 	... 	Billy
Ian Harcourt 	... 	Lofty
Tony Wyeth 	... 	Smithy 
Important information about the subtitle files.txt 1.477 KB
subtitles/Portuguese[Sub].srt 70.578 KB
subtitles/Spanish[Sub].srt 122.762 KB
Gathering some info...

Register and log in Isohunt and see no captcha anymore!

4000 symbols left
Hash 07D63ABFEC2AA988420BACF0C029B2EFC0375BFD

Related torrents for "The Warriors Way 2010 DVDRip XviD AC3-ViSiON"

Torrent search:

dvdrip 2010