imdb
rating

6.8
TRON: Legacy

TRON: Legacy (2010)

Action, Adventure, Science Fiction

Full description

Tron Legacy 2010 DVDRip XviD AC3-ViSiON

Size 1.307 GB   0 seeders     Added 2011-01-26 23:13:38

Stream torrent
Starting‥ You need BitLord! Get it from 1BitLord.com
To download or stream you need BitLord. Visit them at BitLord.com
Format                           : AVI
Format/Info                      : Audio Video Interleave
Format profile                   : OpenDML
File size                        : 842MiB
Duration                         : 2h 07mn
Overall bit rate                 : 1 722 Kbps
Writing application              : VirtualDubMod 1.5.10.2 (build 2542/release)
Writing library                  : VirtualDubMod build 2542/release
Original source form             : MAX TORRENTZ
Copyright                        : SIGISMUNT

Video
ID                               : 0
Format                           : MPEG-4 Visual
Format profile                   : AdvancedSimple@L5
Format settings, BVOP            : Yes
Format settings, QPel            : No
Format settings, GMC             : No warppoints
Format settings, Matrix          : Custom
Codec ID                         : XVID
Codec ID/Hint                    : XviD
Duration                         : 2h 07mn
Bit rate                         : 1 527 Kbps
Width                            : 720 pixels
Height                           : 304 pixels
Display aspect ratio             : 2.35:1
Frame rate                       : 23.976 fps
Resolution                       : 24 bits
Colorimetry                      : 4:2:0
Scan type                        : Progressive
Bits/(Pixel*Frame)               : 0.291
Stream size                      : 751 MiB (89%)
Writing library                  : XviD 1.2.1 (UTC 2008-12-04)

Audio
ID                               : 1
Format                           : MPEG Audio
Format version                   : Version 1
Format profile                   : Layer 3
Codec ID                         : 55
Codec ID/Hint                    : MP3
Duration                         : 2h 07mn
Bit rate mode                    : Constant
Bit rate                         : 192 Kbps
Channel(s)                       : 2 channels
Sampling rate                    : 48.0 KHz
Resolution                       : 16 bits
Stream size                      : 71 MiB (11%)
Alignment                        : Aligned on interleaves
Interleave, duration             : 522 ms (12.51 video frames)
Interleave, preload duration     : 216 ms
Writing library                  : LAME3.98.2

http://www.imdb.com/title/tt1104001/

Genres: Action | Adventure | Sci-Fi | Thriller 

Storyline

Sam Flynn, the tech-savvy 27-year-old son of Kevin Flynn, looks into his father's disappearance and finds himself pulled into the same world of fierce programs and gladiatorial games where his father has been living for 25 years. Along with Kevin's loyal confidant, father and son embark on a life-and-death journey across a visually-stunning cyber universe that has become far more advanced and exceedingly dangerous.

cast:

Olivia Wilde 	... 	Quorra
Jeff Bridges 	... 	Kevin Flynn / Clu 2.0
Michael Sheen 	... 	Castor
Garrett Hedlund 	... 	Sam Flynn
James Frain 	... 	Jarvis
Bruce Boxleitner 	... 	Alan Bradley
Beau Garrett 	... 	Siren Jem
Serinda Swan 	... 	Siren
Yaya DaCosta 	... 	Siren
Amy Esterle 	... 	Young Mrs. Flynn
Elizabeth Mathis ... 	Siren
Brandon Jay McLaren ... Sobel
Owen Best 	... 	Young Sam
Steven Lisberger 		
Michael Teigen 	... 	Green Light Cycle Rider 
Important information about the subtitle files.txt 1.477 KB
subtitles/Portuguese[Sub].srt 70.578 KB
subtitles/Spanish[Sub].srt 122.762 KB
Gathering some info...

Register and log in Isohunt and see no captcha anymore!

4000 symbols left
Hash 780C5850B153EC4DB7DF78C415F6C869D573DA97

Related torrents for "Tron Legacy 2010 DVDRip XviD AC3-ViSiON"

Torrent search:

dvdrip 2010