imdb
rating

7.5
Scott Pilgrim vs. the World

Scott Pilgrim vs. the World (2010)

Action, Adventure, Comedy

Full description

Scott Pilgrim vs the World (2010) DVDRip XviD-DVDRiP.torrent

Size 1.245 GB   0 seeders     Added 2011-01-27 17:14:45

Stream torrent
Starting‥ You need BitLord! Get it from BitLord.com
To download or stream you need BitLord. Visit them at BitLord.com
Scott Pilgrim vs the World (2010) DVDRip XviD-MAX
Format                           : AVI
Format/Info                      : Audio Video Interleave
Format profile                   : OpenDML
File size                        : 1.15 GiB
Duration                         : 1h 52mn
Overall bit rate                 : 1 474 Kbps
Writing application              : VirtualDubMod 1.5.10.2 (build 2542/release)
Writing library                  : VirtualDubMod build 2542/release
Original source form             : MAX TORRENTZ
Copyright                        : SIGISMUNT

Video
ID                               : 0
Format                           : MPEG-4 Visual
Format profile                   : AdvancedSimple@L5
Format settings, BVOP            : Yes
Format settings, QPel            : No
Format settings, GMC             : No warppoints
Format settings, Matrix          : Default (H.263)
Codec ID                         : XVID
Codec ID/Hint                    : XviD
Duration                         : 1h 52mn
Bit rate                         : 1 279 Kbps
Width                            : 640 pixels
Height                           : 352 pixels
Display aspect ratio             : 16:9
Frame rate                       : 23.976 fps
Resolution                       : 24 bits
Colorimetry                      : 4:2:0
Scan type                        : Progressive
Bits/(Pixel*Frame)               : 0.237
Stream size                      : 1.01 GiB (87%)
Writing library                  : XviD 1.2.1 (UTC 2008-12-04)

Audio
ID                               : 1
Format                           : MPEG Audio
Format version                   : Version 1
Format profile                   : Layer 3
Codec ID                         : 55
Codec ID/Hint                    : MP3
Duration                         : 1h 52mn
Bit rate mode                    : Constant
Bit rate                         : 192 Kbps
Channel(s)                       : 2 channels
Sampling rate                    : 48.0 KHz
Resolution                       : 16 bits
Stream size                      : 154 MiB (13%)
Alignment                        : Aligned on interleaves
Interleave, duration             : 586 ms (14.05 video frames)
Interleave, preload duration     : 216 ms
Writing library                  : LAME3.98.2
 
Sources: Original DVD+MP3 audio(perfect resynced with additional 100% volume) sample is included,enjoy
 
http://www.imdb.com/title/tt0446029/

Screens:
 
image
 
image
 
image
 
image

ScreenCaps:
 
image
Acces to Movie.txt 68 B
Scott Pilgrim vs the World (2010) DVDRip XviD-MAXSPEED www.torentz.3xforum.ro.avi 1.245 GB
Scott Pilgrim vs the World (2010) DVDRip XviD-MAXSPEED.nfo 2.803 KB
Gathering some info...

Register and log in Isohunt and see no captcha anymore!

4000 symbols left
Hash 8252A6A270329D5009B34912C20A1E13F652781C

Related torrents for "Scott Pilgrim vs the World (2010) DVDRip XviD-DVDRiP.torrent"

Torrent search:

dvdrip 2010