imdb
rating

6.6
The Mechanic

The Mechanic (2011)

Action, Crime, Thriller

Full description

The Mechanic 2011 BRRip x264 Feel-Free

Size 1.002 GB   0 seeders     Added 2011-01-27 20:22:14

Stream torrent
Starting‥ You need BitLord! Get it from BitLord.com
10
To download or stream you need BitLord. Visit them at BitLord.com
http://www.imdb.com/title/tt0472399/

SCREENSHOTS:

http://postimage.org/image/1fvl3g2w4/

http://postimage.org/image/1ik956eck/

http://postimage.org/image/1fwqfvr8k/

http://postimage.org/image/1v4ss20n8/

http://postimage.org/image/351p3n6mc/


Alternative

http://postimage.org/image/7ds44hs4/

ScreenCaps:

http://postimage.org/image/7d4ylmv8/



File: The Mechanic 2011 BRRip x264 Feel-Free



Format : AVI
Format/Info : Audio Video Interleave
Format profile : OpenDML
Duration : 1h 38mn
Overall bit rate : 2 006 Kbps
Writing application : VirtualDubMod 1.5.10.2 (build

2542/release)
Writing library : VirtualDubMod build 2542/release
Original source form : MAX TORRENTZ
Copyright : SIGISMUNT


Video
ID : 0
Format : MPEG-4 Visual
Format profile : AdvancedSimple@L5
Format settings, BVOP : Yes
Format settings, QPel : No
Format settings, GMC : No warppoints
Format settings, Matrix : Default (H.263)
Duration : 1h 38mn
Bit rate : 1 552 Kbps
Width : 720 pixels
Height : 304 pixels
Display aspect ratio : 2.35:1
Frame rate : 23.976 fps
Resolution : 24 bits
Colorimetry : 4:2:0
Scan type : Progressive
Bits/(Pixel*Frame) : 0.296
Stream size : 1.07 GiB (87%)


Audio
ID : 1
Format : AC-3
Format/Info : Audio Coding 3
Codec ID : 2000
Duration : 1h 38mn
Bit rate mode : Constant
Bit rate : 448 Kbps
Channel(s) : 6 channels
Channel positions : Front: L C R, Surround: L R, LFE
Sampling rate : 48.0 KHz
Stream size : 316 MiB (22%)
Alignment : Aligned on interleaves
Interleave, duration : 64 ms (1.53 video frames)
Interleave, preload duration : 192 ms

Source:1080P AVC DTS-HD MA5.1 (perfect a/v/sync quality-sample is

included)

http://postimage.org/image/7ds44hs4/

How To Get Your Maxspeed (uTorrent)

Torrent Client - Preferences - Bandwidth - Number of connections - Set

aprox. 500 for each
Torrent Client - Preferences - BiTorrent - Protocol Encryption - Forced
Bandwidth Allocation - High (Set download/upload limit - Unlimited)
Stop Other Active Torrents - Start downloading and wait for

connections.
Enjoy and Seed for at least 1:1 ratio. Don't forget to say thanks/leave

reviews.
Before downloading you should check/google search sample "release

name""sample".
Greets to all actual/future p2p/scene QUALITY groups and affiliate

websites.
Don't trust IMDb robot or bad ratings,always watch some trailers first.
Ignore stupid comments/fake/mislabeled/no-DVDrips/CAM/TS/RAR uploads.
Please spread this release/torrent to your friends/forums/etc.
If you need translation subs visit some subtitles sites.
Report if you see online streaming or other spam links.
Recommended movie player VLC PLAYER.
Demonoid.com.txt 42 B
The Mechanic.2011.R6.DVDRip.XviD-ViSiON.avi 992.108 MB
The Mechanic.jpg 15.278 KB
Gathering some info...

Register and log in Isohunt and see no captcha anymore!

4000 symbols left
Hash BE0FECDF8F63F24AAF761F3CA34B38EDC4095251

Related torrents for "The Mechanic 2011 BRRip x264 Feel-Free"

Torrent search:

x264 bd 2011