imdb
rating

6.2
No Strings Attached

No Strings Attached (2011)

Comedy, Romance

Full description
quality   dvdrip telesync

No Strings Attached (2011)(DVDRiP][Eng)-GOLDSTAR

Size 837.076 MB   0 seeders     Added 2011-01-27 23:50:53

Stream torrent
Starting‥ You need BitLord! Get it from BitLord.com
To download or stream you need BitLord. Visit them at BitLord.com
http://postimage.org/image/xl70rpes/


SCREENSHOTS:

http://postimage.org/image/1o1yr7zc4/

http://postimage.org/image/1o222aobo/

http://postimage.org/image/1o25dddb8/

http://postimage.org/image/1o2abzesk/

http://postimage.org/image/1o270wpt0/


Alternative:


http://postimage.org/image/xmhbtf8k/


ScreenCaps:


http://postimage.org/image/xmcd7dr8/



File: No Strings Attached (2011)(DVDRiP][Eng)-GOLDSTAR



Format : AVI
Format/Info : Audio Video Interleave
Format profile : OpenDML
Duration : 1h 38mn
Overall bit rate : 2 006 Kbps
Writing application : VirtualDubMod 1.5.10.2 (build

2542/release)
Writing library : VirtualDubMod build 2542/release
Original source form : MAX TORRENTZ
Copyright : SIGISMUNT


Video
ID : 0
Format : MPEG-4 Visual
Format profile : AdvancedSimple@L5
Format settings, BVOP : Yes
Format settings, QPel : No
Format settings, GMC : No warppoints
Format settings, Matrix : Default (H.263)
Duration : 1h 38mn
Bit rate : 1 552 Kbps
Width : 720 pixels
Height : 304 pixels
Display aspect ratio : 2.35:1
Frame rate : 23.976 fps
Resolution : 24 bits
Colorimetry : 4:2:0
Scan type : Progressive
Bits/(Pixel*Frame) : 0.296
Stream size : 1.07 GiB (87%)


Audio
ID : 1
Format : AC-3
Format/Info : Audio Coding 3
Codec ID : 2000
Duration : 1h 38mn
Bit rate mode : Constant
Bit rate : 448 Kbps
Channel(s) : 6 channels
Channel positions : Front: L C R, Surround: L R, LFE
Sampling rate : 48.0 KHz
Stream size : 316 MiB (22%)
Alignment : Aligned on interleaves
Interleave, duration : 64 ms (1.53 video frames)
Interleave, preload duration : 192 ms

Source:1080P AVC DTS-HD MA5.1 (perfect a/v/sync quality-sample is

included)


IMDB:http://www.imdb.com/title/tt1411238/

http://postimage.org/image/xlk92hd0/


How To Get Your Maxspeed (uTorrent)

Torrent Client - Preferences - Bandwidth - Number of connections - Set

aprox. 500 for each
Torrent Client - Preferences - BiTorrent - Protocol Encryption - Forced
Bandwidth Allocation - High (Set download/upload limit - Unlimited)
Stop Other Active Torrents - Start downloading and wait for

connections.
Enjoy and Seed for at least 1:1 ratio. Don\'t forget to say thanks/leave

reviews.
Before downloading you should check/google search sample \"release

name\"\"sample\".
Greets to all actual/future p2p/scene QUALITY groups and affiliate

websites.
Don\'t trust IMDb robot or bad ratings,always watch some trailers first.
Ignore stupid comments/fake/mislabeled/no-DVDrips/CAM/TS/RAR uploads.
Please spread this release/torrent to your friends/forums/etc.
If you need translation subs visit some subtitles sites.
Report if you see online streaming or other spam links.
Recommended movie player VLC PLAYER.
Demonoid.com.txt 42 B
No String Attached.nfo 4.858 KB
No Strings Attached (2011)(DVDRiP][Eng)-GOLDSTAR.avi 827.176 MB
Gathering some info...

Register and log in Isohunt and see no captcha anymore!

4000 symbols left
Hash EC6477FAE3FEA72C5756E9E7BE8E18387863CFA4

Related torrents for "No Strings Attached (2011)(DVDRiP][Eng)-GOLDSTAR"

Torrent search:

dvdrip english 2011