imdb
rating

6.5
Faster

Faster (2010)

Action, Crime, Drama, Thriller

Full description
quality   screener h264 dvd cam dvdrip

Faster[2010]DvDrip[Eng]-FXG

Size 1.287 GB   0 seeders     Added 2011-01-28 22:41:19

Stream torrent
Starting‥ You need BitLord! Get it from 1BitLord.com
To download or stream you need BitLord. Visit them at BitLord.com
Format                           : AVI
Format/Info                      : Audio Video Interleave
Format profile                   : OpenDML
File size                        : 807MiB
Duration                         : 1h 38mn
Overall bit rate                 : 1 722 Kbps
Writing application              : VirtualDubMod 1.5.10.2 (build 2542/release)
Writing library                  : VirtualDubMod build 2542/release
Original source form             : MAX TORRENTZ
Copyright                        : SIGISMUNT

Video
ID                               : 0
Format                           : MPEG-4 Visual
Format profile                   : AdvancedSimple@L5
Format settings, BVOP            : Yes
Format settings, QPel            : No
Format settings, GMC             : No warppoints
Format settings, Matrix          : Custom
Codec ID                         : XVID
Codec ID/Hint                    : XviD
Duration                         : 1h 38mn
Bit rate                         : 1 527 Kbps
Width                            : 720 pixels
Height                           : 304 pixels
Display aspect ratio             : 2.35:1
Frame rate                       : 23.976 fps
Resolution                       : 24 bits
Colorimetry                      : 4:2:0
Scan type                        : Progressive
Bits/(Pixel*Frame)               : 0.291
Stream size                      : 751 MiB (89%)
Writing library                  : XviD 1.2.1 (UTC 2008-12-04)

Audio
ID                               : 1
Format                           : MPEG Audio
Format version                   : Version 1
Format profile                   : Layer 3
Codec ID                         : 55
Codec ID/Hint                    : MP3
Duration                         : 1h 38mn
Bit rate mode                    : Constant
Bit rate                         : 192 Kbps
Channel(s)                       : 2 channels
Sampling rate                    : 48.0 KHz
Resolution                       : 16 bits
Stream size                      : 71 MiB (11%)
Alignment                        : Aligned on interleaves
Interleave, duration             : 522 ms (12.51 video frames)
Interleave, preload duration     : 216 ms
Writing library                  : LAME3.98.2
 
http://www.imdb.com/title/tt1433108/

Genres: Action | Drama

Storyline

 An ex-con sets out to avenge his brother's death after they were double-crossed during a heist years ago. During his campaign, however, he's tracked by a veteran cop and an egocentric hit man.

cast:

Maggie Grace   	  	
Moon Bloodgood 		
Dwayne Johnson 	... 	Driver
Jennifer Carpenter 		
Carla Gugino 		
Tom Berenger 		
Billy Bob Thornton 	... 	Cop
Adewale Akinnuoye-Agbaje ... 	Evangelist
Xander Berkeley 	... 	Sergeant Mallory
Jonna Walsh 	... 	Teen Girl
Courtney Gains 	... 	Telemarketer
Oliver Jackson-Cohen 	... 	Killer
Michael Irby 	... 	Dealer
J.A. Steel 	... 	Churchgoer
Lester Speight 	... 	Baphomet 
Faster sample.avi 7.494 MB
Faster[2010]DvDrip[Eng]-FXG.avi 1.279 GB
Important information about the subtitle files.txt 1.477 KB
Gathering some info...

Register and log in Isohunt and see no captcha anymore!

4000 symbols left
Hash E45567DDE37B969049419C5066E5BA641E6FCA4C

Related torrents for "Faster[2010]DvDrip[Eng]-FXG"

Torrent search:

dvdrip english 2010