imdb
rating

5.5
Little Fockers

Little Fockers (2010)

Comedy, Romance

Full description

Little Fockers[2010]DvDrip[Eng]-FXG

Size 1.404 GB   0 seeders     Added 2011-01-28 22:47:56

Stream torrent
Starting‥ You need BitLord! Get it from 1BitLord.com
To download or stream you need BitLord. Visit them at BitLord.com
Format                           : AVI
Format/Info                      : Audio Video Interleave
Format profile                   : OpenDML
File size                        : 794 MiB
Duration                         : 1h 38mn
Overall bit rate                 : 1 722 Kbps
Writing application              : VirtualDubMod 1.5.10.2 (build 2542/release)
Writing library                  : VirtualDubMod build 2542/release
Original source form             : MAX TORRENTZ
Copyright                        : SIGISMUNT

Video
ID                               : 0
Format                           : MPEG-4 Visual
Format profile                   : AdvancedSimple@L5
Format settings, BVOP            : Yes
Format settings, QPel            : No
Format settings, GMC             : No warppoints
Format settings, Matrix          : Custom
Codec ID                         : XVID
Codec ID/Hint                    : XviD
Duration                         : 1h 38mn
Bit rate                         : 1 527 Kbps
Width                            : 720 pixels
Height                           : 304 pixels
Display aspect ratio             : 2.35:1
Frame rate                       : 23.976 fps
Resolution                       : 24 bits
Colorimetry                      : 4:2:0
Scan type                        : Progressive
Bits/(Pixel*Frame)               : 0.291
Stream size                      : 678 MiB (89%)
Writing library                  : XviD 1.2.1 (UTC 2008-12-04)

Audio
ID                               : 1
Format                           : MPEG Audio
Format version                   : Version 1
Format profile                   : Layer 3
Codec ID                         : 55
Codec ID/Hint                    : MP3
Duration                         : 1h 38mn
Bit rate mode                    : Constant
Bit rate                         : 192 Kbps
Channel(s)                       : 2 channels
Sampling rate                    : 48.0 KHz
Resolution                       : 16 bits
Stream size                      : 68 MiB (11%)
Alignment                        : Aligned on interleaves
Interleave, duration             : 522 ms (12.51 video frames)
Interleave, preload duration     : 216 ms
Writing library                  : LAME3.98.2

http://www.imdb.com/title/tt0970866/

Genres: Comedy

Storyline

It has taken 10 years, two little Fockers with wife Pam (Polo) and countless hurdles for Greg to finally get "in" with his tightly wound father-in-law, Jack. After the cash-strapped dad takes a job moonlighting for a drug company, however, Jack's suspicions about his favorite male nurse come roaring back. When Greg and Pam's entire clan-including Pam's lovelorn ex, Kevin (Owen Wilson)-descends for the twins' birthday party, Greg must prove to the skeptical Jack that he's fully capable as the man of the house. But with all the misunderstandings, spying and covert missions, will Greg pass Jack's final test and become the family's next patriarch...or will the circle of trust be broken for good?

cast:

Robert De Niro 	... 	Jack Byrnes
Ben Stiller 	... 	Greg Focker
Owen Wilson 	... 	Kevin Rawley
Jessica Alba 		
Dustin Hoffman 	... 	Bernie Focker
Barbra Streisand ... 	Rozalin Focker
Teri Polo 	... 	Pamela Byrnes-Focker
Blythe Danner 	... 	Dina Byrnes
Harvey Keitel 		
Laura Dern 	... 	The Headmistress
Daisy Tahan 	... 	Samantha Focker
Colin Baiocchi 	... 	Henry Focker
Rob Huebel 	... 	Sleazy Doctor
Sergio Calderón ... 	Gustavo
Robert Miano 	... 	Father #4 
Important information about the subtitle files.txt 1.477 KB
Little Fockers sample.avi 3.309 MB
Little Fockers[2010]DvDrip[Eng]-FXG.avi 1.401 GB
Gathering some info...

Register and log in Isohunt and see no captcha anymore!

4000 symbols left
Hash 155BED9C01D6D257DABDD163C24878406F1A5681

Related torrents for "Little Fockers[2010]DvDrip[Eng]-FXG"

Torrent search:

dvdrip english 2010