imdb
rating

6.7
Love & Other Drugs

Love & Other Drugs (2010)

Comedy, Drama, Romance

Full description

Love and Other Drugs[2010]DvDrip[Eng]-FXG

Size 1.311 GB   0 seeders     Added 2011-01-28 22:49:35

Stream torrent
Starting‥ You need BitLord! Get it from BitLord.com
To download or stream you need BitLord. Visit them at BitLord.com
Format                           : AVI
Format/Info                      : Audio Video Interleave
Format profile                   : OpenDML
File size                        : 849 MiB
Duration                         : 1h 42mn
Overall bit rate                 : 1 722 Kbps
Writing application              : VirtualDubMod 1.5.10.2 (build 2542/release)
Writing library                  : VirtualDubMod build 2542/release
Original source form             : MAX TORRENTZ
Copyright                        : SIGISMUNT

Video
ID                               : 0
Format                           : MPEG-4 Visual
Format profile                   : AdvancedSimple@L5
Format settings, BVOP            : Yes
Format settings, QPel            : No
Format settings, GMC             : No warppoints
Format settings, Matrix          : Custom
Codec ID                         : XVID
Codec ID/Hint                    : XviD
Duration                         : 1h 42mn
Bit rate                         : 1 527 Kbps
Width                            : 720 pixels
Height                           : 304 pixels
Display aspect ratio             : 2.35:1
Frame rate                       : 23.976 fps
Resolution                       : 24 bits
Colorimetry                      : 4:2:0
Scan type                        : Progressive
Bits/(Pixel*Frame)               : 0.291
Stream size                      : 778 MiB (89%)
Writing library                  : XviD 1.2.1 (UTC 2008-12-04)

Audio
ID                               : 1
Format                           : MPEG Audio
Format version                   : Version 1
Format profile                   : Layer 3
Codec ID                         : 55
Codec ID/Hint                    : MP3
Duration                         : 1h 42mn
Bit rate mode                    : Constant
Bit rate                         : 192 Kbps
Channel(s)                       : 2 channels
Sampling rate                    : 48.0 KHz
Resolution                       : 16 bits
Stream size                      : 69 MiB (11%)
Alignment                        : Aligned on interleaves
Interleave, duration             : 522 ms (12.51 video frames)
Interleave, preload duration     : 216 ms
Writing library                  : LAME3.98.2
 
http://www.imdb.com/title/tt0758752/

Genres: Comedy | Romance

Storyline

 Maggie (Hathaway) is an alluring free spirit who won't let anyone - or anything - tie her down. But she meets her match in Jamie (Gyllenhaal), whose relentless and nearly infallible charm serve him well with the ladies and in the cutthroat world of pharmaceutical sales. Maggie and Jamie's evolving relationship takes them both by surprise, as they find themselves under the influence of the ultimate drug: love. Based on Jamie Reidy's memoir "Hard Sell: The Evolution of a Viagra Salesman."

cast:

Jake Gyllenhaal   ...  	Jamie Randall
Anne Hathaway 	... 	Maggie Murdock
Judy Greer 		
Hank Azaria 	... 	Dr. Knight
Katheryn Winnick ... 	Lisa
Oliver Platt 	... 	Bruce Jackson
Gabriel Macht 		
Natalie Gold 	... 	Helen Randall
Jaimie Alexander ... 	Carol
George Segal 	... 	Dr. James Randall
Scott Cohen 	... 	Dr. Ted Goldstein
Jill Clayburgh 		
Josh Gad 	... 	Josh Reidy
Brenna Roth 	... 	Maggie's Friend
Nikki Deloach 	... 	Christy 
Important information about the subtitle files.txt 1.477 KB
Love and Other Drugs sample.avi 7.542 MB
Love and Other Drugs[2010]DvDrip[Eng]-FXG.avi 1.303 GB
Gathering some info...

Register and log in Isohunt and see no captcha anymore!

4000 symbols left
Hash BC2552752FCEC22687534B7CD59956A914750CF1

Related torrents for "Love and Other Drugs[2010]DvDrip[Eng]-FXG"

Torrent search:

dvdrip english 2010