imdb
rating

7.7
True Grit

True Grit (2010)

Adventure, Drama, Western

Full description

True Grit 2010 LIMITED DVDRip XviD-TWiZTED

Size 1.372 GB   0 seeders     Added 2011-01-28 23:05:31

Stream torrent
Starting‥ You need BitLord! Get it from 1BitLord.com
To download or stream you need BitLord. Visit them at BitLord.com
Format                           : AVI
Format/Info                      : Audio Video Interleave
Format profile                   : OpenDML
File size                        : 739MiB
Duration                         : 1h 50mn
Overall bit rate                 : 1 722 Kbps
Writing application              : VirtualDubMod 1.5.10.2 (build 2542/release)
Writing library                  : VirtualDubMod build 2542/release
Original source form             : MAX TORRENTZ
Copyright                        : SIGISMUNT

Video
ID                               : 0
Format                           : MPEG-4 Visual
Format profile                   : AdvancedSimple@L5
Format settings, BVOP            : Yes
Format settings, QPel            : No
Format settings, GMC             : No warppoints
Format settings, Matrix          : Custom
Codec ID                         : XVID
Codec ID/Hint                    : XviD
Duration                         : 1h 50mn
Bit rate                         : 1 527 Kbps
Width                            : 720 pixels
Height                           : 304 pixels
Display aspect ratio             : 2.35:1
Frame rate                       : 23.976 fps
Resolution                       : 24 bits
Colorimetry                      : 4:2:0
Scan type                        : Progressive
Bits/(Pixel*Frame)               : 0.291
Stream size                      : 683 MiB (89%)
Writing library                  : XviD 1.2.1 (UTC 2008-12-04)

Audio
ID                               : 1
Format                           : MPEG Audio
Format version                   : Version 1
Format profile                   : Layer 3
Codec ID                         : 55
Codec ID/Hint                    : MP3
Duration                         : 1h 50mn
Bit rate mode                    : Constant
Bit rate                         : 192 Kbps
Channel(s)                       : 2 channels
Sampling rate                    : 48.0 KHz
Resolution                       : 16 bits
Stream size                      : 71 MiB (11%)
Alignment                        : Aligned on interleaves
Interleave, duration             : 522 ms (12.51 video frames)
Interleave, preload duration     : 216 ms
Writing library                  : LAME3.98.2
 
http://www.imdb.com/title/tt1403865/

Genres: Adventure | Drama | Western

Storyline

 Housewife and mother Penny Chenery agrees to take over her ailing father's Virginia-based Meadow Stables, despite her lack of horse-racing knowledge. Against all odds, Chenery -- with the help of veteran trainer Lucien Laurin -- manages to navigate the male-dominated business, ultimately fostering the first Triple Crown winner in twenty-five years."grit" tested.

cast:

Jeff Bridges 	... 	Rooster Cogburn
Hailee Steinfeld 	... 	Mattie Ross
Matt Damon 	... 	LaBoeuf
Josh Brolin 	... 	Tom Chaney
Barry Pepper 	... 	Lucky Ned Pepper
Dakin Matthews 	... 	Col. Stonehill
Jarlath Conroy 	... 	Undertaker
Paul Rae 		... 	Emmett Quincy
Domhnall Gleeson 	... 	Moon (The Kid)
Elizabeth Marvel 	... 	40-Year-Old Mattie
Roy Lee Jones 	... 	Yarnell
Ed Corbin 		... 	Bear Man
Leon Russom 	... 	Sheriff
Bruce Green 	... 	Harold Parmalee
Candyce Hinkle 	... 	Boarding House Landlady 
Important information about the subtitle files.txt 1.477 KB
subtitles/Portuguese[Sub].srt 70.578 KB
subtitles/Spanish[Sub].srt 122.762 KB
Gathering some info...

Register and log in Isohunt and see no captcha anymore!

4000 symbols left
Hash BC54F3378B36C0465FB9340C8CFF564E855DB80C

Related torrents for "True Grit 2010 LIMITED DVDRip XviD-TWiZTED"

Torrent search:

dvdrip 2010