Barneys Version 2011 UNRATED DVDRip XviD - MAX

Size 957.248 MB   1 seeders     Added 2011-01-29 03:01:25

Stream torrent
Starting‚Ä• You need BitLord! Get it from 1BitLord.com
To download or stream you need BitLord. Visit them at BitLord.com
Format : AVI
Format/Info : Audio Video Interleave
File size : 923 MiB
Duration : 2h 12mn
Overall bit rate : 1 184 Kbps
Writing application : VirtualDubMod 1.5.10.2 (build 2540/release)
Writing library : VirtualDub build 32839/release

Video
ID : 0
Format : MPEG-4 Visual
Format profile : Advanced Simple@L5
Format settings, BVOP : Yes
Format settings, QPel : No
Format settings, GMC : No warppoints
Format settings, Matrix : Custom
Codec ID : XVID
Codec ID/Hint : XviD
Duration : 2h 12mn
Bit rate : 1 042 Kbps
Width : 692 pixels
Height : 294 pixels
Display aspect ratio : 2.35:1
Frame rate : 23.976 fps
Color space : YUV
Chroma subsampling : 4:2:0
Bit depth : 8 bits
Scan type : Progressive
Bits/(Pixel*Frame) : 0.214
Stream size : 799 MiB (88%)
Writing library : XviD 1.2.1 (UTC 2008-12-04)

Audio
ID : 1
Format : MPEG Audio
Format version : Version 1
Format profile : Layer 3
Mode : Joint stereo
Mode extension : MS Stereo
Codec ID : 55
Codec ID/Hint : MP3
Duration : 2h 12mn
Bit rate mode : Variable
Bit rate : 128 Kbps
Channel(s) : 2 channels
Sampling rate : 48.0 KHz
Stream size : 99.2 MiB (11%)
Alignment : Aligned on interleaves
Interleave, duration : 24 ms (0.58 video frame)
Interleave, preload duration : 142 ms
Writing library : LAME3.90.
Encoding settings : -m j -V 4 -q 2 -lowpass 17.6 --abr 128

http://www.imdb.com/title/tt1423894/


Users: (547 votes) 11 reviews | Critics: 38 reviews Metascore: 66/100 (based on 20 reviews from Metacritic.com)

Storyline

Take a ride through the life and memories of Barney Panofsky, a hard-drinking, cigar-smoking, foulmouthed 65-year old hockey fanatic and television producer, as he reflects on his life's successes and (numerous) gaffes and failures as the final chapters of his own existence come sharply into focus.

Director:
Richard J. Lewis
Writer:
Mordecai Richler (based on the novel by), Michael Konyves (screenplay)
Stars:
Paul Giamatti, Rosamund Pike and Jake Hoffman
Barneys Version 2011 UNRATED DVDRip XviD - MAX.avi 945.274 MB
Barneys Version sample.avi 11.974 MB
tracked_and_downloaded_form_torrentday.com.txt 42 B
Gathering some info...

Register and log in Isohunt and see no captcha anymore!

4000 symbols left
Hash 6457DED63F3BBF170DB78FEE35DBD32E9021125F