imdb
rating

5.9
The Green Hornet

The Green Hornet (2011)

Action, Comedy, Crime

Full description
quality   dvdrip telesync cam bd dvd

The Green Hornet[2011]DVDRip.XviD-iLG

Size 1.231 GB   0 seeders     Added 2011-01-29 03:21:07

Stream torrent
Starting‥ You need BitLord! Get it from 1BitLord.com
To download or stream you need BitLord. Visit them at BitLord.com
Format : AVI
Format/Info : Audio Video Interleave
File size : 1.19 GiB
Duration : 1h 59mn
Overall bit rate : 1 184 Kbps
Writing application : VirtualDubMod 1.5.10.2 (build 2540/release)
Writing library : VirtualDub build 32839/release

Video
ID : 0
Format : MPEG-4 Visual
Format profile : Advanced Simple@L5
Format settings, BVOP : Yes
Format settings, QPel : No
Format settings, GMC : No warppoints
Format settings, Matrix : Custom
Codec ID : XVID
Codec ID/Hint : XviD
Duration : 1h 59mn
Bit rate : 1 042 Kbps
Width : 692 pixels
Height : 294 pixels
Display aspect ratio : 2.35:1
Frame rate : 23.976 fps
Color space : YUV
Chroma subsampling : 4:2:0
Bit depth : 8 bits
Scan type : Progressive
Bits/(Pixel*Frame) : 0.214
Stream size : 927 MiB (88%)
Writing library : XviD 1.2.1 (UTC 2008-12-04)

Audio
ID : 1
Format : MPEG Audio
Format version : Version 1
Format profile : Layer 3
Mode : Joint stereo
Mode extension : MS Stereo
Codec ID : 55
Codec ID/Hint : MP3
Duration : 1h 59mn
Bit rate mode : Variable
Bit rate : 128 Kbps
Channel(s) : 2 channels
Sampling rate : 48.0 KHz
Stream size : 123.2 MiB (11%)
Alignment : Aligned on interleaves
Interleave, duration : 24 ms (0.58 video frame)
Interleave, preload duration : 142 ms
Writing library : LAME3.90.
Encoding settings : -m j -V 4 -q 2 -lowpass 17.6 --abr 128

http://www.imdb.com/title/tt0990407/


Users: (6,476 votes) 136 reviews | Critics: 42 reviews Metascore: 39/100 (based on 39 reviews from Metacritic.com)

Storyline

Playboy Britt Reid (Seth Rogen) becomes the new publisher of Los Angeles' "The Daily Sentinel" after the sudden death of his father. Britt's party life is about to change when he and his driver and kung fu expert, Kato (Jay Chou), stop a robbery. With the help of Kato, Britt starts a new career of fighting crime as the masked superhero "The Green Hornet". 

Director:
Michel Gondry
Writer:
Seth Rogen, Evan Goldberg
Stars:
Seth Rogen, Jay Chou and Christoph Waltz
The Green Hornet sample.avi 3.325 MB
The Green Hornet[2011]DVDRip.XviD-iLG.avi 1.227 GB
tracked_and_downloaded_form_torrentday.com.txt 42 B
Gathering some info...

Register and log in Isohunt and see no captcha anymore!

4000 symbols left
Hash E8A962A4DEBB1A9F3AD22D69EBC1735ECE4EDCE8

Related torrents for "The Green Hornet[2011]DVDRip.XviD-iLG"

Torrent search:

dvdrip 2011