imdb
rating

6.6
The Mechanic

The Mechanic (2011)

Action, Crime, Thriller

Full description

The Mechanic[2011]DVDRip.XviD-iLG

Size 989.072 MB   0 seeders     Added 2011-01-29 03:27:19

Stream torrent
Starting‥ You need BitLord! Get it from 1BitLord.com
To download or stream you need BitLord. Visit them at BitLord.com
Format : AVI
Format/Info : Audio Video Interleave
File size : 950 MiB
Duration : 1h 32mn
Overall bit rate : 1 184 Kbps
Writing application : VirtualDubMod 1.5.10.2 (build 2540/release)
Writing library : VirtualDub build 32839/release

Video
ID : 0
Format : MPEG-4 Visual
Format profile : Advanced Simple@L5
Format settings, BVOP : Yes
Format settings, QPel : No
Format settings, GMC : No warppoints
Format settings, Matrix : Custom
Codec ID : XVID
Codec ID/Hint : XviD
Duration : 1h 32mn
Bit rate : 1 042 Kbps
Width : 692 pixels
Height : 294 pixels
Display aspect ratio : 2.35:1
Frame rate : 23.976 fps
Color space : YUV
Chroma subsampling : 4:2:0
Bit depth : 8 bits
Scan type : Progressive
Bits/(Pixel*Frame) : 0.214
Stream size : 819 MiB (88%)
Writing library : XviD 1.2.1 (UTC 2008-12-04)

Audio
ID : 1
Format : MPEG Audio
Format version : Version 1
Format profile : Layer 3
Mode : Joint stereo
Mode extension : MS Stereo
Codec ID : 55
Codec ID/Hint : MP3
Duration : 1h 32mn
Bit rate mode : Variable
Bit rate : 128 Kbps
Channel(s) : 2 channels
Sampling rate : 48.0 KHz
Stream size : 99.2 MiB (11%)
Alignment : Aligned on interleaves
Interleave, duration : 24 ms (0.58 video frame)
Interleave, preload duration : 142 ms
Writing library : LAME3.90.
Encoding settings : -m j -V 4 -q 2 -lowpass 17.6 --abr 128

http://www.imdb.com/title/tt0472399/


Users: (11,167 votes) 167 reviews | Critics: 156 reviews Metascore: 88/100 (based on 39 reviews from Metacritic.com)

Storyline

Arthur Bishop (Jason Statham) is a 'mechanic' - an elite assassin with a strict code and unique talent for cleanly eliminating targets. It's a job that requires professional perfection and total detachment, and Bishop is the best in the business. But when his mentor and close friend Harry (Donald Sutherland) is murdered, Bishop is anything but detached. His next assignment is self-imposed - he wants those responsible dead. His mission grows complicated when Harry's son Steve (Ben Foster) approaches him with the same vengeful goal and a determination to learn Bishop's trade. Bishop has always acted alone but he can't turn his back on Harry's son. A methodical hit man takes an impulsive student deep into his world and a deadly partnership is born. But while in pursuit of their ultimate mark, deceptions threaten to surface and those hired to fix problems become problems themselves.

Director:
Simon West
Writer:
Richard Wenk (screenplay), Lewis John Carlino (screenplay)
Stars:
Jason Statham, Ben Foster and Donald Sutherland
The Mechanic sample.avi 15.646 MB
The Mechanic[2011]R5 Line XviD-ExtraTorrentRG.avi 973.426 MB
tracked_and_downloaded_form_torrentday.com.txt 42 B
Gathering some info...

Register and log in Isohunt and see no captcha anymore!

4000 symbols left
Hash 882F0CB49033494463B64C1A1BC69C263F0362E3

Related torrents for "The Mechanic[2011]DVDRip.XviD-iLG"

Torrent search:

dvdrip 2011