imdb
rating

6.2
The Eagle

The Eagle (2011)

Adventure, Drama

Full description
quality   hd fullhd dvdr bd screener dvdrip

The Eagle DVDRip 2011 DV.ENG.DVDRip.avi.torrent

Size 1.005 GB   0 seeders     Added 2011-01-31 08:11:22

Stream torrent
Starting‥ You need BitLord! Get it from 1BitLord.com
To download or stream you need BitLord. Visit them at BitLord.com
File:: The Eagle DVDRip 2011 DV.ENG.DVDRip.avi

Video Source:: ....Team Serenity. Killin it, thx

Audio Source:: ....own, thx matey

Language::English

Genre::Drama

IMDB::http://www.imdb.com/title/tt1034389/


In 140 AD, twenty years after the unexplained disappearance of the entire Ninth Legion in the mountains of Scotland, young centurion Marcus Aquila (Tatum) arrives from Rome to solve the mystery and restore the reputation of his father, the commander of the Ninth. Accompanied only by his British slave Esca (Bell), Marcus sets out across Hadrian's Wall into the uncharted highlands of Caledonia - to confront its savage tribes, make peace with his father's memory, and retrieve the lost legion's golden emblem, the Eagle of the Ninth. 



Specs::



General



Format : AVI

Format/Info : Audio Video Interleave

Duration : 1h 54mn

Overall bit rate : 1 761 Kbps

Writing application : VirtualDubMod 1.5.10.2 (build 2540/release)

Writing library : VirtualDubMod build 2540/release



Video

ID : 0

Format : MPEG-4 Visual

Format profile : Advanced Simple@L5

Format settings, BVOP : Yes

Format settings, QPel : No

Format settings, GMC : No warppoints

Format settings, Matrix : Default (H.263)

Muxing mode : Packed bitstream

Codec ID : XVID

Codec ID/Hint : XviD

Duration : 1h 54mn

Bit rate : 1 495 Kbps

Width : 720 pixels

Height : 306 pixels

Display aspect ratio : 2.35:1

Frame rate : 25.000 fps

Color space : YUV

Chroma subsampling : 4:2:0

Bit depth : 8 bits

Scan type : Progressive

Bits/(Pixel*Frame) : 0.271

Stream size : 1.16 GiB (85%)

Writing library : XviD 1.2.1 (UTC 2008-12-04)



Audio

ID : 1

Format : MPEG Audio

Format version : Version 1

Format profile : Layer 3

Codec ID : 55

Codec ID/Hint : MP3

Duration : 1h 54mn

Bit rate mode : Constant

Bit rate : 256 Kbps

Channel(s) : 2 channels

Sampling rate : 44.1 KHz

Stream size : 204 MiB (15%)

Alignment : Split accross interleaves

Interleave, duration : 40 ms (1.00 video frame)

Interleave, preload duration : 500 ms



::Why Complain? Whats Free Is Free::



::iNK is currently a free agent looking for work, if you would like iNK's touch, give me a email at: ...digital.ink@live.com or MSN add me.



::We are always looking for friends with unreleased DVD's, Screeners, R5's, Audio, Cams, Silvers,

...and any other good sources you may have to offer - contact us: blackindians@hushmail.com


Official Trailer.mp4 28.02 MB
Subs[ENG].srt 136.693 KB
The Eagle DVDRip 2011 DV.ENG.DVDRip.avi.avi 977.122 MB
Gathering some info...

Register and log in Isohunt and see no captcha anymore!

4000 symbols left
Hash FE06C6370A6EDA03F77F475E14AC1D6062F3BC84

Related torrents for "The Eagle DVDRip 2011 DV.ENG.DVDRip.avi.torrent"

Torrent search:

dvdrip english 2011