imdb
rating

6.0
The Rite

The Rite (2011)

Drama, Horror, Thriller

Full description
quality   bd dvdrip screener dvd

The Rite 2011 R5.LINE.XviD - TWiZTED

Size 921.996 MB   2 seeders     Added 2011-02-01 02:33:35

Stream torrent
Starting‥ You need BitLord! Get it from BitLord.com
To download or stream you need BitLord. Visit them at BitLord.com
Format : AVI
Format/Info : Audio Video Interleave
File size : 948 MiB
Overall bit rate : 1 184 Kbps
Writing application : VirtualDubMod 1.5.10.2 (build 2540/release)
Writing library : VirtualDub build 32839/release

Video
ID : 0
Format : MPEG-4 Visual
Format profile : Advanced Simple@L5
Format settings, BVOP : Yes
Format settings, QPel : No
Format settings, GMC : No warppoints
Format settings, Matrix : Custom
Codec ID : XVID
Codec ID/Hint : XviD
Bit rate : 1 042 Kbps
Width : 692 pixels
Height : 294 pixels
Display aspect ratio : 2.35:1
Frame rate : 23.976 fps
Color space : YUV
Chroma subsampling : 4:2:0
Bit depth : 8 bits
Scan type : Progressive
Bits/(Pixel*Frame) : 0.214
Stream size : 799 MiB (88%)
Writing library : XviD 1.2.1 (UTC 2008-12-04)

Audio
ID : 1
Format : MPEG Audio
Format version : Version 1
Format profile : Layer 3
Mode : Joint stereo
Mode extension : MS Stereo
Codec ID : 55
Codec ID/Hint : MP3
Bit rate mode : Variable
Bit rate : 128 Kbps
Channel(s) : 2 channels
Sampling rate : 48.0 KHz
Stream size : 99.2 MiB (11%)
Alignment : Aligned on interleaves
Interleave, duration : 24 ms (0.58 video frame)
Interleave, preload duration : 142 ms
Writing library : LAME3.90.
Encoding settings : -m j -V 4 -q 2 -lowpass 17.6 --abr 128

http://www.imdb.com/title/tt1161864/


Users: (11,167 votes) 167 reviews | Critics: 156 reviews Metascore: 88/100 (based on 39 reviews from Metacritic.com)

Storyline

An American priest travels to Italy to study at an exorcism school. 

Director:
Mikael Håfström
Writer:
Michael Petroni, Matt Baglio (book)
Stars:
Colin O'Donoghue, Anthony Hopkins and Ciarán Hinds
The Rite 2011 R5.LINE.XviD - TWiZTED.avi 917.958 MB
The Rite 2011 sample.avi 4.038 MB
tracked_and_downloaded_form_torrentday.com.txt 42 B
Gathering some info...

Register and log in Isohunt and see no captcha anymore!

4000 symbols left
Hash 53765CA4E2BE8DFE35E25E4962D84795F8C3B866

Related torrents for "The Rite 2011 R5.LINE.XviD - TWiZTED"

Torrent search:

dvd 2011