imdb
rating

4.6
Yogi Bear

Yogi Bear (2010)

Adventure, Animation, Comedy, Family

Full description
quality   dvdrip telesync dvd screener

Yogi Bear 2010 DVDSCR XviD AC3 - iLLUSiON (Kingdom-Release)

Size 874.26 MB   0 seeders     Added 2011-02-02 00:02:11

Stream torrent
Starting‥ You need BitLord! Get it from BitLord.com
To download or stream you need BitLord. Visit them at BitLord.com
Format : AVI
Format/Info : Audio Video Interleave
File size : 1.29 GiB
Duration : 1h 20mn
Overall bit rate : 1 184 Kbps
Writing application : VirtualDubMod 1.5.10.2 (build 2540/release)
Writing library : VirtualDub build 32839/release

Video
ID : 0
Format : MPEG-4 Visual
Format profile : Advanced Simple@L5
Format settings, BVOP : Yes
Format settings, QPel : No
Format settings, GMC : No warppoints
Format settings, Matrix : Custom
Codec ID : XVID
Codec ID/Hint : XviD
Duration : 1h 20mn
Bit rate : 1 042 Kbps
Width : 692 pixels
Height : 294 pixels
Display aspect ratio : 2.35:1
Frame rate : 23.976 fps
Color space : YUV
Chroma subsampling : 4:2:0
Bit depth : 8 bits
Scan type : Progressive
Bits/(Pixel*Frame) : 0.214
Stream size : 929 MiB (88%)
Writing library : XviD 1.2.1 (UTC 2008-12-04)

Audio
ID : 1
Format : MPEG Audio
Format version : Version 1
Format profile : Layer 3
Mode : Joint stereo
Mode extension : MS Stereo
Codec ID : 55
Codec ID/Hint : MP3
Duration : 1h 20mn
Bit rate mode : Variable
Bit rate : 128 Kbps
Channel(s) : 2 channels
Sampling rate : 48.0 KHz
Stream size : 119.2 MiB (11%)
Alignment : Aligned on interleaves
Interleave, duration : 24 ms (0.58 video frame)
Interleave, preload duration : 142 ms
Writing library : LAME3.90.
Encoding settings : -m j -V 4 -q 2 -lowpass 17.6 --abr 128

http://www.imdb.com/title/tt1302067/


Users: 3.6/10 (1,542 votes) 32 reviews | Critics: 62 reviews Metascore: 35/100 (based on 22 reviews from Metacritic.com)

Storyline

Jellystone Park is celebrating its 100 anniversary, however it may be for the last time, because attendance is down and Mayor Brown wants to close the park and sell the land. If the park is closed, Yogi Bear and Boo Boo will lose their home. They join forces with Ranger Smith to save Jellystone from closing forever. Yogi must really prove in this endeavor that he is "smarter than the average bear".

Director:
Eric Brevig
Writer:
Jeffrey Ventimilia, Joshua Sternin
Stars:
Dan Aykroyd, Justin Timberlake and Anna Faris
Yogi Bear 2010 DVDSCR XviD AC3 - iLLUSiON (Kingdom-Release) .avi 862.47 MB
Yogi Bear 2010 sample.avi 11.79 MB
tracked_and_downloaded_form_torrentday.com.txt 42 B
Gathering some info...

Register and log in Isohunt and see no captcha anymore!

4000 symbols left
Hash DAA09585C489DAFB8C36E6A1106D1AA4BC4694F7

Related torrents for "Yogi Bear 2010 DVDSCR XviD AC3 - iLLUSiON (Kingdom-Release)"

Torrent search:

screener 2010