In The Mood For Love OST (2000) [FLAC]

Size 217.799 MB   0 seeders     Added 2011-02-02 17:20:37

Stream torrent
Starting‥ You need BitLord! Get it from BitLord.com
10
To download or stream you need BitLord. Visit them at BitLord.com
[IMG]image[/IMG]
\n
\n
\n[b][color=blue]---------------------------------------------------------------------
\n VA - In the Mood for Love
\n---------------------------------------------------------------------
\n
\nArtist...............: Various Artists
\nAlbum................: In the Mood for Love
\nGenre................: Soundtrack
\nSource...............: CD
\nYear.................: 2000
\nRipper...............: Exact Audio Copy 0.95b3 (secure mode) Flac 1.14a -8 & HL-DT-STDVDRAM GSA-4167B
\nCodec................: Free Lossless Audio Codec (FLAC)
\nVersion..............: reference libFLAC 1.1.4 20070213
\nQuality..............: Lossless, (avg. compression: 40 %)
\nChannels.............: Stereo / 44100 HZ / 16 Bit
\nTags.................: VorbisComment
\n
\nIncluded.............: NFO, M3U, LOG, CUE
\n
\n
\n---------------------------------------------------------------------
\n Tracklisting
\n---------------------------------------------------------------------
\n
\n 1. (00:02:29) Shigeru Umebayashi - Yumeji\'s Theme
\n 2. (00:00:10) Tony Leung Chiu Wai - Mo-Wan\'s Dialogue
\n 3. (00:02:12) Micheal Galasso - Angkor Wat Theme I
\n 4. (00:02:09) Micheal Galasso - ITMFL I
\n 5. (00:02:12) Nat King Cole - Aquellos Ojos Verdes
\n 6. (00:02:54) Deng Bai-Ying - Shuang Shuang Yan
\n 7. (00:01:03) Micheal Galasso - ITMFL II
\n 8. (00:03:18) Zhou Xuan - Radio Broadcasting / Hua Yang De Nian Hua
\n 9. (00:02:45) Nat King Cole - Quizás, Quizás, Quizás (Perhaps, Perhaps, Perhaps)
\n 10. (00:02:52) Rebecca Pan - Bengawan Solo
\n 11. (00:01:33) Micheal Galasso - ITMFL III
\n 12. (00:00:22) Tan Xin-Pei - Si Lang Tan Mu
\n 13. (00:01:14) Zhue Xue-Qing and Xie Hui-Jun - Zhuang Tai Bao Xi
\n 14. (00:05:45) Micheal Galasso - Blue
\n 15. (00:01:59) Zheng Jun-Mian and Li Hong - Hong Nian Hui Zhang Sheng
\n 16. (00:02:42) Maggie Cheung / Nat King Cole - Li-zhen\'s Dialogue / Te Quiero Dijiste (Magic Is The Moonlight)
\n 17. (00:02:06) Micheal Galasso - Angkor Wat Theme II
\n 18. (00:03:11) Chiu Wai-Ping - Yue Er Wan Wan Zhao Jiu Zhou
\n 19. (00:02:18) Micheal Galasso - Casanova / Flute
\n 20. (00:02:29) Shigeru Umebayashi / Maggie Cheung - Yumeji\'s Theme / Li-zhen\'s Dialogue
\n 21. (00:02:42) Micheal Galasso - Angkor Wat Theme Finale
\n
\nPlaying Time.........: 00:48:26
\nTotal Size...........: 207.69 MB
\n[/color][/b]
\n
\n
\n[CODE]EAC extraction logfile from 1. January 2008, 19:11 for CD
\nVarious / In the Mood for Love
\n
\nUsed drive  : HL-DT-STDVDRAM GSA-4167B   Adapter: 1  ID: 0
\nRead mode   : Secure with NO C2, accurate stream, disable cache
\nRead offset correction : 667
\nOverread into Lead-In and Lead-Out : No
\n
\nUsed output format : c:\\Program Files\\FLAC\\flac.exe   (User Defined Encoder)
\n                     128 kBit/s
\n                     Additional command line options :  -8 -V -T \"ARTIST=%a\" -T \"TITLE=%t\" -T \"ALBUM=%g\" -T \"DATE=%y\" -T \"TRACKNUMBER=%n\" -T \"GENRE=%m\" -T \"COMMENT=Exact Audio Copy 0.95b3 Flac 1.14a -8\" %s
\n
\nOther options      :
\n    Fill up missing offset samples with silence : Yes
\n    Delete leading and trailing silent blocks : No
\n    Native Win32 interface for Win NT & 2000
\n
\n
\nTrack  1
\n     Filename z:\\media\\160GB\\Audio\\DAE Files\\01 - Shigeru Umebayashi - Yumeji\'s Theme.wav
\n
\n     Pre-gap length  0:00:02.00
\n
\n     Peak level 59.2 %
\n     Track quality 100.0 %
\n     Test CRC E0291FC4
\n     Copy CRC E0291FC4
\n     Copy OK
\n
\nTrack  2
\n     Filename z:\\media\\160GB\\Audio\\DAE Files\\02 - Mo-Wan\'s Dialogue - Mo-Wan\'s Dialogue.wav
\n
\n     Pre-gap length  0:00:02.00
\n
\n     Peak level 35.7 %
\n     Track quality 100.0 %
\n     Test CRC CD945E96
\n     Copy CRC CD945E96
\n     Copy OK
\n
\nTrack  3
\n     Filename z:\\media\\160GB\\Audio\\DAE Files\\03 - Angkor Wat Theme I - Angkor Wat Theme I.wav
\n
\n     Pre-gap length  0:00:02.00
\n
\n     Peak level 72.5 %
\n     Track quality 100.0 %
\n     Test CRC 7D3A5762
\n     Copy CRC 7D3A5762
\n     Copy OK
\n
\nTrack  4
\n     Filename z:\\media\\160GB\\Audio\\DAE Files\\04 - ITMFL I - ITMFL I.wav
\n
\n     Pre-gap length  0:00:02.00
\n
\n     Peak level 50.4 %
\n     Track quality 100.0 %
\n     Test CRC 7E969763
\n     Copy CRC 7E969763
\n     Copy OK
\n
\nTrack  5
\n     Filename z:\\media\\160GB\\Audio\\DAE Files\\05 - Nat King Cole - Aquellos Ojos Verdes.wav
\n
\n     Pre-gap length  0:00:02.00
\n
\n     Peak level 78.6 %
\n     Track quality 100.0 %
\n     Test CRC 5CEA5BF1
\n     Copy CRC 5CEA5BF1
\n     Copy OK
\n
\nTrack  6
\n     Filename z:\\media\\160GB\\Audio\\DAE Files\\06 - Deng Bai-Ying - Shuang Shuang Yan.wav
\n
\n     Pre-gap length  0:00:02.00
\n
\n     Peak level 82.2 %
\n     Track quality 100.0 %
\n     Test CRC 8E45890B
\n     Copy CRC 8E45890B
\n     Copy OK
\n
\nTrack  7
\n     Filename z:\\media\\160GB\\Audio\\DAE Files\\07 - ITMFL II - ITMFL II.wav
\n
\n     Pre-gap length  0:00:02.00
\n
\n     Peak level 37.6 %
\n     Track quality 100.0 %
\n     Test CRC 895624B2
\n     Copy CRC 895624B2
\n     Copy OK
\n
\nTrack  8
\n     Filename z:\\media\\160GB\\Audio\\DAE Files\\08 - Zhou Xuan - Radio Broadcasting-Hua Yang De Nian Hua.wav
\n
\n     Pre-gap length  0:00:02.00
\n
\n     Peak level 74.5 %
\n     Track quality 100.0 %
\n     Test CRC CBCA01E3
\n     Copy CRC CBCA01E3
\n     Copy OK
\n
\nTrack  9
\n     Filename z:\\media\\160GB\\Audio\\DAE Files\\09 - Nat King Cole - Quizas, Quizas, Quizas.wav
\n
\n     Pre-gap length  0:00:02.00
\n
\n     Peak level 69.5 %
\n     Track quality 100.0 %
\n     Test CRC 932FC73D
\n     Copy CRC 932FC73D
\n     Copy OK
\n
\nTrack 10
\n     Filename z:\\media\\160GB\\Audio\\DAE Files\\10 - Rebecca Pan - Bengawan Solo.wav
\n
\n     Pre-gap length  0:00:02.00
\n
\n     Peak level 55.7 %
\n     Track quality 100.0 %
\n     Test CRC 70DFF5DF
\n     Copy CRC 70DFF5DF
\n     Copy OK
\n
\nTrack 11
\n     Filename z:\\media\\160GB\\Audio\\DAE Files\\11 - ITMFL III - ITMFL III.wav
\n
\n     Pre-gap length  0:00:02.00
\n
\n     Peak level 51.7 %
\n     Track quality 100.0 %
\n     Test CRC 73C04900
\n     Copy CRC 73C04900
\n     Copy OK
\n
\nTrack 12
\n     Filename z:\\media\\160GB\\Audio\\DAE Files\\12 - Tan Xin-Pei - Si Lang Tan Mu.wav
\n
\n     Pre-gap length  0:00:02.00
\n
\n     Peak level 61.0 %
\n     Track quality 99.5 %
\n     Test CRC 31CCCE7D
\n     Copy CRC 31CCCE7D
\n     Copy OK
\n
\nTrack 13
\n     Filename z:\\media\\160GB\\Audio\\DAE Files\\13 - Zhue Xue-Qing and Xie Hui-Jun - Zhuang Tai Bao Xi.wav
\n
\n     Pre-gap length  0:00:02.00
\n
\n     Peak level 67.3 %
\n     Track quality 100.0 %
\n     Test CRC ECE5F3F0
\n     Copy CRC ECE5F3F0
\n     Copy OK
\n
\nTrack 14
\n     Filename z:\\media\\160GB\\Audio\\DAE Files\\14 - Blue - Blue.wav
\n
\n     Pre-gap length  0:00:02.00
\n
\n     Peak level 100.0 %
\n     Track quality 100.0 %
\n     Test CRC B7413021
\n     Copy CRC B7413021
\n     Copy OK
\n
\nTrack 15
\n     Filename z:\\media\\160GB\\Audio\\DAE Files\\15 - Zheng Jun-Mian and Li Hong - Hong Nian Hui Zhang Sheng.wav
\n
\n     Pre-gap length  0:00:02.00
\n
\n     Peak level 34.1 %
\n     Track quality 100.0 %
\n     Test CRC 1187FF00
\n     Copy CRC 1187FF00
\n     Copy OK
\n
\nTrack 16
\n     Filename z:\\media\\160GB\\Audio\\DAE Files\\16 - Li-zhen\'s Dialogue - Nat King Cole - Te Quiero Dijiste.wav
\n
\n     Pre-gap length  0:00:02.00
\n
\n     Peak level 79.5 %
\n     Track quality 99.9 %
\n     Test CRC 5000FD4E
\n     Copy CRC 5000FD4E
\n     Copy OK
\n
\nTrack 17
\n     Filename z:\\media\\160GB\\Audio\\DAE Files\\17 - Angkor Wat Theme II - Angkor Wat Theme II.wav
\n
\n     Pre-gap length  0:00:02.00
\n
\n     Peak level 67.6 %
\n     Track quality 100.0 %
\n     Test CRC CD98FBDD
\n     Copy CRC CD98FBDD
\n     Copy OK
\n
\nTrack 18
\n     Filename z:\\media\\160GB\\Audio\\DAE Files\\18 - Chiu Wai-Ping - Yue Er Wan Wan Zhao Jiu Zhou.wav
\n
\n     Pre-gap length  0:00:02.00
\n
\n     Peak level 45.5 %
\n     Track quality 100.0 %
\n     Test CRC 6A4964B1
\n     Copy CRC 6A4964B1
\n     Copy OK
\n
\nTrack 19
\n     Filename z:\\media\\160GB\\Audio\\DAE Files\\19 - Casanova - Flute - Casanova - Flute.wav
\n
\n     Pre-gap length  0:00:02.00
\n
\n     Peak level 100.0 %
\n     Track quality 100.0 %
\n     Test CRC 7592341D
\n     Copy CRC 7592341D
\n     Copy OK
\n
\nTrack 20
\n     Filename z:\\media\\160GB\\Audio\\DAE Files\\20 - Shigeru Umebayashi - Yumeji\'s Theme-Li-zhen\'s Dialogue.wav
\n
\n     Pre-gap length  0:00:02.00
\n
\n     Peak level 59.2 %
\n     Track quality 100.0 %
\n     Test CRC 1D6E4775
\n     Copy CRC 1D6E4775
\n     Copy OK
\n
\nTrack 21
\n     Filename z:\\media\\160GB\\Audio\\DAE Files\\21 - Angkor Wat Theme Finale - Angkor Wat Theme Finale.wav
\n
\n     Pre-gap length  0:00:02.00
\n
\n     Peak level 98.4 %
\n     Track quality 100.0 %
\n     Test CRC 92D83E1B
\n     Copy CRC 92D83E1B
\n     Copy OK
\n
\nNo errors occured
\n
\n
\nEnd of status report
\n[/CODE]
\n
\n
\n[b][i][color=blue]Thank to FlacMonkey for the original release
\nmovie it\'s here:: [URL]http://www.demonoid.me/files/details/2535714/3269960/[/URL]
\n
\n15 kb/s 24/7[/color][/i][/b]
In The Mood For Love OST (2000) [FLAC]/01 - Shigeru Umebayashi - Yumeji's Theme.flac 12.001 MB
In The Mood For Love OST (2000) [FLAC]/02 - Mo-Wan's Dialogue - Mo-Wan's Dialogue.flac 220.301 KB
In The Mood For Love OST (2000) [FLAC]/03 - Angkor Wat Theme I - Angkor Wat Theme I.flac 9.772 MB
Gathering some info...

Register and log in Isohunt and see no captcha anymore!

4000 symbols left
Hash 05c3c03ea501a399d4a31c6a69ef1b214e7e90ad

Related torrents for "In The Mood For Love OST (2000) [FLAC]"

Torrent search:

2000 lossless