imdb
rating

6.1
Sucker Punch

Sucker Punch (2011)

Action, Fantasy, Thriller

Full description

Sucker Punch (2011) DVDRip XviD AC3-ViSi0N.torrent

Size 1.006 GB   0 seeders     Added 2011-02-03 17:44:18

Stream torrent
Starting‥ You need BitLord! Get it from BitLord.com
To download or stream you need BitLord. Visit them at BitLord.com
File:: Sucker Punch (2011) DVDRip XviD AC3-ViSi0N

Video Source:: ....Team Serenity. Killin it, thx

Audio Source:: ....own, thx matey

Language::English

Genre::Action | Fantasy | Thriller

IMDB::http://www.imdb.com/title/tt0978764/


About a little girl who is trying to hide from the pain caused by her evil stepfather and lobotomy. She ends up in a mental institution and while there she starts to imagine an alternative reality. She plans to escape from that imaginary world but to do that she needs to steal five objects before she is caught by a vile man. The story is set in the 1950's. 



Specs::



General



Format : AVI

Format/Info : Audio Video Interleave

Duration : 1h 28mn

Overall bit rate : 1 761 Kbps

Writing application : VirtualDubMod 1.5.10.2 (build 2540/release)

Writing library : VirtualDubMod build 2540/release



Video

ID : 0

Format : MPEG-4 Visual

Format profile : Advanced Simple@L5

Format settings, BVOP : Yes

Format settings, QPel : No

Format settings, GMC : No warppoints

Format settings, Matrix : Default (H.263)

Muxing mode : Packed bitstream

Codec ID : XVID

Codec ID/Hint : XviD

Duration : 1h 28mn

Bit rate : 1 495 Kbps

Width : 720 pixels

Height : 306 pixels

Display aspect ratio : 2.35:1

Frame rate : 25.000 fps

Color space : YUV

Chroma subsampling : 4:2:0

Bit depth : 8 bits

Scan type : Progressive

Bits/(Pixel*Frame) : 0.271

Stream size : 1.16 GiB (85%)

Writing library : XviD 1.2.1 (UTC 2008-12-04)



Audio

ID : 1

Format : MPEG Audio

Format version : Version 1

Format profile : Layer 3

Codec ID : 55

Codec ID/Hint : MP3

Duration : 1h 28mn

Bit rate mode : Constant

Bit rate : 256 Kbps

Channel(s) : 2 channels

Sampling rate : 44.1 KHz

Stream size : 204 MiB (15%)

Alignment : Split accross interleaves

Interleave, duration : 40 ms (1.00 video frame)

Interleave, preload duration : 500 ms



::Why Complain? Whats Free Is Free::



::iNK is currently a free agent looking for work, if you would like iNK's touch, give me a email at: ...digital.ink@live.com or MSN add me.



::We are always looking for friends with unreleased DVD's, Screeners, R5's, Audio, Cams, Silvers,

...and any other good sources you may have to offer - contact us: blackindians@hushmail.com


MOVIE.nfo 4.858 KB
Official Trailer.mp4 6.835 MB
Subs[ENG].srt 136.693 KB
Gathering some info...

Register and log in Isohunt and see no captcha anymore!

4000 symbols left
Hash 3F69A0BFC196FA84519C109842C61980E4A909EB

Related torrents for "Sucker Punch (2011) DVDRip XviD AC3-ViSi0N.torrent"

Torrent search:

dvdrip 2011