imdb
rating

5.5
Drive Angry

Drive Angry (2011)

Action, Crime, Fantasy, Thriller

Full description
quality   screener dvdrip dvd ppvr

Drive Angry 3D (2011) ENG XViD AVI

Size 1.188 GB   0 seeders     Added 2011-02-03 18:32:47

Stream torrent
Starting‥ You need BitLord! Get it from BitLord.com
10
To download or stream you need BitLord. Visit them at BitLord.com
Drive Angry 3D (2011) ENG XViD AVI
\n
\n
\nFormat : AVI
\nFormat/Info : Audio Video Interleave
\nFormat profile : OpenDML
\nFile size : 1.43 GiB
\nDuration : 2h 28mn
\nOverall bit rate : 1 381 Kbps
\n
\nVideo
\nID : 0
\nFormat : MPEG-4 Visual
\nFormat profile : AdvancedSimple@L5
\nFormat settings, BVOP : Yes
\nFormat settings, QPel : No
\nFormat settings, GMC : No warppoints
\nFormat settings, Matrix : Default (H.263)
\nMuxing mode : Packed bitstream
\nCodec ID : XVID
\nCodec ID/Hint : XviD
\nDuration : 2h 28mn
\nBit rate : 1 185 Kbps
\nWidth : 640 pixels
\nHeight : 272 pixels
\nDisplay aspect ratio : 2.35:1
\nFrame rate : 23.976 fps
\nResolution : 24 bits
\nColorimetry : 4:2:0
\nScan type : Progressive
\nBits/(Pixel*Frame) : 0.284
\nStream size : 1.23 GiB (86%)
\nWriting library : XviD 57
\n
\nAudio
\nID : 1
\nFormat : MPEG Audio
\nFormat version : Version 1
\nFormat profile : Layer 3
\nCodec ID : 55
\nCodec ID/Hint : MP3
\nDuration : 2h 28mn
\nBit rate mode : Constant
\nBit rate : 192 Kbps
\nChannel(s) : 2 channels
\nSampling rate : 48.0 KHz
\nResolution : 16 bits
\nStream size : 203 MiB (14%)
\nAlignment : Aligned on interleaves
\nInterleave, duration : 628 ms (15.07 video frames)
\nInterleave, preload duration : 216 ms
\nTitle : sucker punch
\nWriting library : LAME3.98.2
\n
\n
\n
\nPLOT:
\n A vengeful father escapes from hell and chases after the men who killed his wife and kidnapped his daughter.
\n
\n
\nSources: Original DVD+MP3 audio (perfect sync with additional 100% volume) sample included,enjoy
Drive Angry 3D (2011) ENG XViD AVI/Drive Angry 3D (2011) ENG XViD AVI.avi 1.175 GB
Drive Angry 3D (2011) ENG XViD AVI/MOVIE.nfo 4.858 KB
Drive Angry 3D (2011) ENG XViD AVI/Official Trailer.mp4 12.292 MB
Gathering some info...

Register and log in Isohunt and see no captcha anymore!

4000 symbols left
Hash 11e7fe1146dace050012a198cbe8714dcb46941a

Related torrents for "Drive Angry 3D (2011) ENG XViD AVI"

Torrent search:

english 2011