imdb
rating

6.1
I Am Number Four

I Am Number Four (2011)

Action, Adventure, Science Fiction, Thriller

Full description

I Am Number Four (2011) ENG XViD AVI

Size 1.21 GB   0 seeders     Added 2011-02-03 19:08:36

Stream torrent
Starting‥ You need BitLord! Get it from BitLord.com
To download or stream you need BitLord. Visit them at BitLord.com
I Am Number Four (2011) ENG XViD AVI
\n
\n
\nFormat : AVI
\nFormat/Info : Audio Video Interleave
\nFormat profile : OpenDML
\nFile size : 1.43 GiB
\nDuration : 2h 28mn
\nOverall bit rate : 1 381 Kbps
\n
\nVideo
\nID : 0
\nFormat : MPEG-4 Visual
\nFormat profile : AdvancedSimple@L5
\nFormat settings, BVOP : Yes
\nFormat settings, QPel : No
\nFormat settings, GMC : No warppoints
\nFormat settings, Matrix : Default (H.263)
\nMuxing mode : Packed bitstream
\nCodec ID : XVID
\nCodec ID/Hint : XviD
\nDuration : 2h 28mn
\nBit rate : 1 185 Kbps
\nWidth : 640 pixels
\nHeight : 272 pixels
\nDisplay aspect ratio : 2.35:1
\nFrame rate : 23.976 fps
\nResolution : 24 bits
\nColorimetry : 4:2:0
\nScan type : Progressive
\nBits/(Pixel*Frame) : 0.284
\nStream size : 1.23 GiB (86%)
\nWriting library : XviD 57
\n
\nAudio
\nID : 1
\nFormat : MPEG Audio
\nFormat version : Version 1
\nFormat profile : Layer 3
\nCodec ID : 55
\nCodec ID/Hint : MP3
\nDuration : 2h 28mn
\nBit rate mode : Constant
\nBit rate : 192 Kbps
\nChannel(s) : 2 channels
\nSampling rate : 48.0 KHz
\nResolution : 16 bits
\nStream size : 203 MiB (14%)
\nAlignment : Aligned on interleaves
\nInterleave, duration : 628 ms (15.07 video frames)
\nInterleave, preload duration : 216 ms
\nTitle : sucker punch
\nWriting library : LAME3.98.2
\n
\n
\n
\nPLOT:
\n John is an extraordinary teen, masking his true identity and passing as a typical
\n
\nhigh school student to elude a deadly enemy seeking to destroy him. Three like him
\n
\nhave already been killed ... he is Number Four.
\n
\nSources: Original DVD+MP3 audio (perfect sync with additional 100% volume) sample
\n
\nincluded,enjoy
I Am Number Four (2011) ENG XViD AVI/I Am Number Four (2011) ENG XViD AVI.avi 1.202 GB
I Am Number Four (2011) ENG XViD AVI/MOVIE.nfo 4.858 KB
I Am Number Four (2011) ENG XViD AVI/Official Trailer.mp4 8.455 MB
Gathering some info...

Register and log in Isohunt and see no captcha anymore!

4000 symbols left
Hash 926488fc77afabc53c2a2794f8e2e5a0e05d3b5d

Related torrents for "I Am Number Four (2011) ENG XViD AVI"

Torrent search:

english 2011