imdb
rating

7.1
The Adjustment Bureau

The Adjustment Bureau (2011)

Fantasy, Thriller, Romance

Full description
quality   dvdrip dvd telesync cam

The Adjustment Bureau2011 DvDRip XviD AC3-ViSiON.torrent

Size 999.216 MB   0 seeders     Added 2011-02-08 02:06:48

Stream torrent
Starting‥ You need BitLord! Get it from BitLord.com
To download or stream you need BitLord. Visit them at BitLord.com
File:: The Adjustment Bureau2011 DvDRip XviD AC3-ViSiON

Video Source:: ....Team Serenity. Killin it, thx

Audio Source:: ....own, thx matey

Language::English

Genre::Romance | Thriller

IMDB::http://www.imdb.com/title/tt1385826/


Do we control our destiny, or do unseen forces manipulate us? Matt Damon stars in the thriller The Adjustment Bureau as a man who glimpses the future Fate has planned for him and realizes he wants something else. To get it, he must pursue the only woman he's ever loved across, under and through the streets of modern-day New York. On the brink of winning a seat in the U.S. Senate, ambitious politician David Norris (Damon) meets beautiful contemporary ballet dancer Elise Sellas (Emily Blunt)-a woman like none he's ever known. But just as he realizes he's falling for her, mysterious men conspire to keep the two apart. David learns he is up against the agents of Fate itself-the men of The Adjustment Bureau-who will do everything in their considerable power to prevent David and Elise from being together. In the face of overwhelming odds, he must either let her go and accept a predetermined path.


Specs::


General



Format : AVI

Format/Info : Audio Video Interleave

Duration : 1h 56mn

Overall bit rate : 1 761 Kbps

Writing application : VirtualDubMod 1.5.10.2 (build 2540/release)

Writing library : VirtualDubMod build 2540/release



Video

ID : 0

Format : MPEG-4 Visual

Format profile : Advanced Simple@L5

Format settings, BVOP : Yes

Format settings, QPel : No

Format settings, GMC : No warppoints

Format settings, Matrix : Default (H.263)

Muxing mode : Packed bitstream

Codec ID : XVID

Codec ID/Hint : XviD

Duration : 1h 56mn

Bit rate : 1 495 Kbps

Width : 720 pixels

Height : 306 pixels

Display aspect ratio : 2.35:1

Frame rate : 25.000 fps

Color space : YUV

Chroma subsampling : 4:2:0

Bit depth : 8 bits

Scan type : Progressive

Bits/(Pixel*Frame) : 0.271

Stream size : 1.16 GiB (85%)

Writing library : XviD 1.2.1 (UTC 2008-12-04)



Audio

ID : 1

Format : MPEG Audio

Format version : Version 1

Format profile : Layer 3

Codec ID : 55

Codec ID/Hint : MP3

Duration : 1h 56mn

Bit rate mode : Constant

Bit rate : 256 Kbps

Channel(s) : 2 channels

Sampling rate : 44.1 KHz

Stream size : 204 MiB (15%)

Alignment : Split accross interleaves

Interleave, duration : 40 ms (1.00 video frame)

Interleave, preload duration : 500 ms
Demonoid.com.txt 42 B
movies.nfo 4.858 KB
The Adjustment Bureau2011 DvDRip XviD AC3-ViSiON.avi 999.142 MB
Gathering some info...

Register and log in Isohunt and see no captcha anymore!

4000 symbols left
Hash 120F5DEB06D7412243FF868E8A5375A5686C739D

Related torrents for "The Adjustment Bureau2011 DvDRip XviD AC3-ViSiON.torrent"

Torrent search:

dvdrip