imdb
rating

6.5
Hereafter

Hereafter (2010)

Drama, Fantasy

Full description
quality   dvdrip screener cam x264

Hereafter.2010.DvDSCR.XViD.FEEL-FREE

Size 1.174 GB   0 seeders     Added 2011-02-08 15:55:35

Stream torrent
Starting‥ You need BitLord! Get it from BitLord.com
To download or stream you need BitLord. Visit them at BitLord.com
        ----------------TITLE-------------------
  ___________________________________________________
                     Hereafter 2010
 
          
              


Release date: October 2010 
Runtime: 1h 39mns
Source: ELEKTRA
Format: DvD
Audio: VBR MP3 140 kbps
MPAA: USA:PG-13
IMBLINK: http://www.imdb.com/title/tt1212419/
Width: 720
Height: 320

 
Video
ID : 0
Format : MPEG-4 Visual
Format settings, BVOP : Yes
Format settings, QPel : No
Format settings, GMC : No warppoints
Format settings, Matrix : Default (H.263)
Codec ID : DX50
Codec ID/Hint : DivX 5
Duration : 1h 39mn
Bit rate : 1 123 Kbps
Width : 704 pixels
Height : 304 pixels
Display aspect ratio : 2.35:1
Frame rate : 25.000 fps
Resolution : 8 bits
Colorimetry : 4:2:0
Scan type : Progressive
Bits/(Pixel*Frame) : 0.210
Stream size : 713 MiB (89%)
Writing library : DivX 6.8.5 (UTC 2009-08-20)

Audio
ID : 1
Format : MPEG Audio
Format version : Version 1
Format profile : Layer 3
Mode : Joint stereo
Format_Settings_ModeExtension : MS Stereo
Codec ID : 55
Codec ID/Hint : MP3
Duration : 1h 39mn
Bit rate mode : Constant
Bit rate : 128 Kbps
Channel(s) : 2 channels
Sampling rate : 48.0 KHz
Stream size : 81.2 MiB (10%)
Alignment : Split accross interleaves
Interleave, duration : 40 ms (1.00 video frame)
Interleave, preload duration : 500 ms


    ********************** PLOT ***********************

A drama centered on three people -- a blue-collar American, a French journalist and a London school boy -- who are touched by death in different ways.
NOTES:

GREETS TO IMAGINE,XCLUSIVE666,MAX, & PRISM
THANKS FOR THE SHARE..

WORK DONE HOPE YOULL ENJOY GUYS.. SAMPLE IS INCLUDED SO ENJOY!!
Hereafter.2010.DvDSCR.XViD.FEEL-FREE.avi 1.167 GB
Movie Info.nfo 1.735 KB
Sample/Sample.avi 7.446 MB
Gathering some info...

Register and log in Isohunt and see no captcha anymore!

4000 symbols left
Hash 52B543B76A38A559DC6DEAE6614FAD1CD733B587

Related torrents for "Hereafter.2010.DvDSCR.XViD.FEEL-FREE"

Torrent search:

screener 2010