imdb
rating

5.5
From Prada to Nada

From Prada to Nada (2011)

Comedy, Drama, Romance

Full description

From Prada to Nada 2011 DVDSCR XviD-JAV2ME (ENG SUB)

Size 1.009 GB   0 seeders     Added 2011-02-08 22:12:35

Stream torrent
Starting‥ You need BitLord! Get it from BitLord.com
To download or stream you need BitLord. Visit them at BitLord.com
Video Source:: ....Team Serenity. Killin it, thx

Audio Source:: ....own, thx matey

Language::English

Genre::Comedy | Drama | Romance

IMDB::http://www.imdb.com/title/tt0893412/


A Latina spin on Jane Austen's "Sense and Sensibility," where two spoiled sisters who have been left penniless after their father's sudden death are forced to move in with their estranged aunt in East Los Angeles.

Specs::


General



Format : AVI

Format/Info : Audio Video Interleave

Duration : 1h 47mn

Overall bit rate : 1 761 Kbps

Writing application : VirtualDubMod 1.5.10.2 (build 2540/release)

Writing library : VirtualDubMod build 2540/release



Video

ID : 0

Format : MPEG-4 Visual

Format profile : Advanced Simple@L5

Format settings, BVOP : Yes

Format settings, QPel : No

Format settings, GMC : No warppoints

Format settings, Matrix : Default (H.263)

Muxing mode : Packed bitstream

Codec ID : XVID

Codec ID/Hint : XviD

Duration : 1h 47mn

Bit rate : 1 495 Kbps

Width : 720 pixels

Height : 306 pixels

Display aspect ratio : 2.35:1

Frame rate : 25.000 fps

Color space : YUV

Chroma subsampling : 4:2:0

Bit depth : 8 bits

Scan type : Progressive

Bits/(Pixel*Frame) : 0.271

Stream size : 1.16 GiB (85%)

Writing library : XviD 1.2.1 (UTC 2008-12-04)



Audio

ID : 1

Format : MPEG Audio

Format version : Version 1

Format profile : Layer 3

Codec ID : 55

Codec ID/Hint : MP3

Duration : 1h 47mn

Bit rate mode : Constant

Bit rate : 256 Kbps

Channel(s) : 2 channels

Sampling rate : 44.1 KHz

Stream size : 204 MiB (15%)

Alignment : Split accross interleaves

Interleave, duration : 40 ms (1.00 video frame)

Interleave, preload duration : 500 ms
Demonoid.com.txt 42 B
From Prada to Nada 2011 DVDSCR XviD-JAV2ME (ENG SUB).avi 997.045 MB
From Prada To Nada Movie Trailer Official [www.keepvid.com].mp4 11.906 MB
Gathering some info...

Register and log in Isohunt and see no captcha anymore!

4000 symbols left
Hash E50E3AFC738884AFFDD08F971D2DEC815E33EA87

Related torrents for "From Prada to Nada 2011 DVDSCR XviD-JAV2ME (ENG SUB)"

Torrent search:

english screener 2011