imdb
rating

4.8
The Roommate

The Roommate (2011)

Drama, Horror, Thriller

Full description

The Roommate 2011 DVDSCR XviD-JAV2ME (ENG SUB).torrent

Size 1.009 GB   0 seeders     Added 2011-02-09 03:18:16

Stream torrent
Starting‥ You need BitLord! Get it from BitLord.com
To download or stream you need BitLord. Visit them at BitLord.com
File:: The Roommate 2011 DVDSCR XviD-JAV2ME (ENG SUB)

Video Source:: ....Team Serenity. Killin it, thx

Audio Source:: ....own, thx matey

Language::English

Genre::Drama | Thriller

IMDB::http://www.imdb.com/title/tt1265990/


College student Sara finds her safety jeopardized after she's assigned to a dorm room with a new roommate, Rebecca. 


Specs::



General



Format : AVI

Format/Info : Audio Video Interleave

Duration : 1h 33mn

Overall bit rate : 1 761 Kbps

Writing application : VirtualDubMod 1.5.10.2 (build 2540/release)

Writing library : VirtualDubMod build 2540/release



Video

ID : 0

Format : MPEG-4 Visual

Format profile : Advanced Simple@L5

Format settings, BVOP : Yes

Format settings, QPel : No

Format settings, GMC : No warppoints

Format settings, Matrix : Default (H.263)

Muxing mode : Packed bitstream

Codec ID : XVID

Codec ID/Hint : XviD

Duration : 1h 33mn

Bit rate : 1 495 Kbps

Width : 720 pixels

Height : 306 pixels

Display aspect ratio : 2.35:1

Frame rate : 25.000 fps

Color space : YUV

Chroma subsampling : 4:2:0

Bit depth : 8 bits

Scan type : Progressive

Bits/(Pixel*Frame) : 0.271

Stream size : 1.16 GiB (85%)

Writing library : XviD 1.2.1 (UTC 2008-12-04)



Audio

ID : 1

Format : MPEG Audio

Format version : Version 1

Format profile : Layer 3

Codec ID : 55

Codec ID/Hint : MP3

Duration : 1h 33mn

Bit rate mode : Constant

Bit rate : 256 Kbps

Channel(s) : 2 channels

Sampling rate : 44.1 KHz

Stream size : 204 MiB (15%)

Alignment : Split accross interleaves

Interleave, duration : 40 ms (1.00 video frame)

Interleave, preload duration : 500 ms
The Roommate 2011 DVDSCR XviD-JAV2ME (ENG SUB)/Demonoid.com.txt 42 B
The Roommate 2011 DVDSCR XviD-JAV2ME (ENG SUB)/movies.nfo 4.858 KB
The Roommate 2011 DVDSCR XviD-JAV2ME (ENG SUB)/The Roommate (2011) - Official Trailer HD [www.keepvid.com].mp4 9.56 MB
Gathering some info...

Register and log in Isohunt and see no captcha anymore!

4000 symbols left
Hash 5584f26ae615292a851d474321f123206878c665

Related torrents for "The Roommate 2011 DVDSCR XviD-JAV2ME (ENG SUB).torrent"

Torrent search:

english screener 2011