imdb
rating

7.8
Tangled

Tangled (2010)

Animation, Family

Full description

Tangled 2010 DVDRiP AC3 XViD-ViSiON

Size 726.109 MB   0 seeders     Added 2011-02-11 00:26:29

Stream torrent
Starting‥ You need BitLord! Get it from 1BitLord.com
To download or stream you need BitLord. Visit them at BitLord.com
Format : AVI
Format/Info : Audio Video Interleave
File size : 726.11 MiB
Duration : 1h 40mn
Overall bit rate : 1 184 Kbps
Writing application : VirtualDubMod 1.5.10.2 (build 2540/release)
Writing library : VirtualDub build 32839/release

Video
ID : 0
Format : MPEG-4 Visual
Format profile : Advanced Simple@L5
Format settings, BVOP : Yes
Format settings, QPel : No
Format settings, GMC : No warppoints
Format settings, Matrix : Custom
Codec ID : XVID
Codec ID/Hint : XviD
Duration : 1h 40mn
Bit rate : 1 042 Kbps
Width : 692 pixels
Height : 294 pixels
Display aspect ratio : 2.35:1
Frame rate : 23.976 fps
Color space : YUV
Chroma subsampling : 4:2:0
Bit depth : 8 bits
Scan type : Progressive
Bits/(Pixel*Frame) : 0.214
Stream size : 679 MiB (88%)
Writing library : XviD 1.2.1 (UTC 2008-12-04)

Audio
ID : 1
Format : MPEG Audio
Format version : Version 1
Format profile : Layer 3
Mode : Joint stereo
Mode extension : MS Stereo
Codec ID : 55
Codec ID/Hint : MP3
Duration : 1h 40mn
Bit rate mode : Variable
Bit rate : 128 Kbps
Channel(s) : 2 channels
Sampling rate : 48.0 KHz
Stream size : 99.2 MiB (11%)
Alignment : Aligned on interleaves
Interleave, duration : 24 ms (0.58 video frame)
Interleave, preload duration : 142 ms
Writing library : LAME3.90.
Encoding settings : -m j -V 4 -q 2 -lowpass 17.6 --abr 128
 
http://www.imdb.com/title/tt0398286/

Genres: Animation | Comedy | Family | Musical

Storyline

 After a retooling, the film will be based again on the literary origins of the famous fairy tale, in the veins of Classics like "Snow White" and "Cinderella": described as a traditional, character-driven fairy tale it will speak to a modern audience, with a different new style of its own.

cast:

Mandy Moore   	...  	Rapunzel (voice)
Zachary Levi 	... 	Flynn Ryder (voice)
Donna Murphy 	... 	Mother Gothel (voice)

Rest of cast listed alphabetically:

Ron Perlman 	... 	Stabbington Brother (voice)
Brad Garrett 	... 	Hookhand (voice)
Jeffrey Tambor 	... 	Lord Jamie (voice)
M.C. Gainey 	... 	Captain of the Guard (voice)
Paul F. Tompkins... 	Short Thug (voice) 
Tangled 2010 DVDRiP AC3 XViD-ViSiON.avi 723.114 MB
Tangled 2010 sample.avi.avi 2.994 MB
tracked_and_downloaded_from_extratorrent.com.txt 44 B
Gathering some info...

Register and log in Isohunt and see no captcha anymore!

4000 symbols left
Hash E335B8006C3E9F98D7D46C745F558DB8DF25951E

Related torrents for "Tangled 2010 DVDRiP AC3 XViD-ViSiON"

Torrent search:

dvdrip 2010