imdb
rating

6.8
TRON: Legacy

TRON: Legacy (2010)

Action, Adventure, Science Fiction

Full description

Tron Legacy 2010 NEWSRC.DVDSCR.AC3.XViD-T0XiC-iNK(better quality)

Size 811.789 MB   0 seeders     Added 2011-02-11 00:42:37

Stream torrent
Starting‥ You need BitLord! Get it from BitLord.com
To download or stream you need BitLord. Visit them at BitLord.com
Format : AVI
Format/Info : Audio Video Interleave
File size : 723 MiB
Duration : 2h 05mn
Overall bit rate : 1 184 Kbps
Writing application : VirtualDubMod 1.5.10.2 (build 2540/release)
Writing library : VirtualDub build 32839/release

Video
ID : 0
Format : MPEG-4 Visual
Format profile : Advanced Simple@L5
Format settings, BVOP : Yes
Format settings, QPel : No
Format settings, GMC : No warppoints
Format settings, Matrix : Custom
Codec ID : XVID
Codec ID/Hint : XviD
Duration : 2h 05mn
Bit rate : 1 042 Kbps
Width : 692 pixels
Height : 294 pixels
Display aspect ratio : 2.35:1
Frame rate : 23.976 fps
Color space : YUV
Chroma subsampling : 4:2:0
Bit depth : 8 bits
Scan type : Progressive
Bits/(Pixel*Frame) : 0.214
Stream size : 799 MiB (88%)
Writing library : XviD 1.2.1 (UTC 2008-12-04)

Audio
ID : 1
Format : MPEG Audio
Format version : Version 1
Format profile : Layer 3
Mode : Joint stereo
Mode extension : MS Stereo
Codec ID : 55
Codec ID/Hint : MP3
Duration : 2h 05mn
Bit rate mode : Variable
Bit rate : 128 Kbps
Channel(s) : 2 channels
Sampling rate : 48.0 KHz
Stream size : 99.2 MiB (11%)
Alignment : Aligned on interleaves
Interleave, duration : 24 ms (0.58 video frame)
Interleave, preload duration : 142 ms
Writing library : LAME3.90.
Encoding settings : -m j -V 4 -q 2 -lowpass 17.6 --abr 128

http://www.imdb.com/title/tt1104001/

Genres: Action | Adventure | Sci-Fi | Thriller

Storyline

Sam Flynn, the tech-savvy 27-year-old son of Kevin Flynn, looks into his father's disappearance and finds himself pulled into the same world of fierce programs and gladiatorial games where his father has been living for 25 years. Along with Kevin's loyal confidant, father and son embark on a life-and-death journey across a visually-stunning cyber universe that has become far more advanced and exceedingly dangerous.

cast:

Olivia Wilde     ...     Quorra
Jeff Bridges     ...     Kevin Flynn / Clu 2.0
Michael Sheen     ...     Castor
Garrett Hedlund     ...     Sam Flynn
James Frain     ...     Jarvis
Bruce Boxleitner     ...     Alan Bradley
Beau Garrett     ...     Siren Jem
Serinda Swan     ...     Siren
Yaya DaCosta     ...     Siren
Amy Esterle     ...     Young Mrs. Flynn
Elizabeth Mathis ...     Siren
Brandon Jay McLaren ... Sobel
Owen Best     ...     Young Sam
Steven Lisberger         
Michael Teigen     ...     Green Light Cycle Rider
tracked_and_downloaded_from_h33t.com.txt 36 B
Tron Legacy 2010 NEWSRC.DVDSCR.AC3.XViD-T0XiC-iNK(better quality).avi 808.794 MB
Tron Legacy 2010 sample.avi.avi 2.994 MB
Gathering some info...

Register and log in Isohunt and see no captcha anymore!

4000 symbols left
Hash B6BA388E0BD9AD89FC0E259D2F51A65A69DD0582

Related torrents for "Tron Legacy 2010 NEWSRC.DVDSCR.AC3.XViD-T0XiC-iNK(better quality)"

Torrent search:

screener 2010