File:: The Roommate 2011 Tamil DVD Rip XviD 1 CD MP3@Mastitorr

Size 925.964 MB   0 seeders     Added 2011-02-13 22:49:10

Stream torrent
Starting‚Ä• You need BitLord! Get it from BitLord.com
10
To download or stream you need BitLord. Visit them at BitLord.com
::::::::::::::Enjoy:Another:Release:::::::::::::::
\n
\nhttp://postimage.org/image/x1m2tqlg/
\n
\n
\nVideo > Movies
\n
\nFile:: The Roommate 2011 Tamil DVD Rip XviD 1 CD MP3@Mastitorr
\n
\nIMDB::http://www.imdb.com/title/tt1265990/
\n
\nSCREENS
\n
\nhttp://postimage.org/image/x2rf9exw/
\n
\nhttp://postimage.org/image/x2uqc3xg/
\n
\nhttp://postimage.org/image/x2y1esx0/
\n
\nhttp://postimage.org/image/1pnecd69w/
\n
\nhttp://postimage.org/image/1pnfzwiro/
\n
\n
\n
\nVideo Source:: ....Team Serenity. Killin it, thx
\n
\nAudio Source:: ....own, thx matey
\n
\nLanguage::English
\n
\n
\nFollowing the death of his father, Britt Reid, heir to his father\'s large company,
\n
\nteams up with his late dad\'s assistant Kato to become a masked crime fighting team.
\n
\n
\n
\nSpecs::
\n
\n
\n
\nGeneral
\n
\n
\n
\nFormat : AVI
\n
\nFormat/Info : Audio Video Interleave
\n
\nDuration : 1h 51mn
\n
\nOverall bit rate : 1 761 Kbps
\n
\nWriting application : VirtualDubMod 1.5.10.2 (build 2540/release)
\n
\nWriting library : VirtualDubMod build 2540/release
\n
\nGuaranteed working : 100% movie
\n
\n
\nVideo
\n
\nID : 0
\n
\nFormat : MPEG-4 Visual
\n
\nFormat profile : Advanced Simple@L5
\n
\nFormat settings, BVOP : Yes
\n
\nFormat settings, QPel : No
\n
\nFormat settings, GMC : No warppoints
\n
\nFormat settings, Matrix : Default (H.263)
\n
\nMuxing mode : Packed bitstream
\n
\nDuration : 1h 51mn
\n
\nBit rate : 1 495 Kbps
\n
\nWidth : 720 pixels
\n
\nHeight : 306 pixels
\n
\nDisplay aspect ratio : 2.35:1
\n
\nFrame rate : 25.000 fps
\n
\nColor space : YUV
\n
\nChroma subsampling : 4:2:0
\n
\nBit depth : 8 bits
\n
\nScan type : Progressive
\n
\nBits/(Pixel*Frame) : 0.271
\n
\nStream size : 1.16 GiB (85%)
\n
\n
\n
\n
\nAudio
\n
\nID : 1
\n
\nFormat : MPEG Audio
\n
\nFormat version : Version 1
\n
\nFormat profile : Layer 3
\n
\nCodec ID : 55
\n
\nCodec ID/Hint : MP3
\n
\nDuration : 1h 51mn
\n
\nBit rate mode : Constant
\n
\nBit rate : 256 Kbps
\n
\nChannel(s) : 2 channels
\n
\nSampling rate : 44.1 KHz
\n
\nStream size : 204 MiB (15%)
\n
\nAlignment : Split accross interleaves
\n
\nInterleave, duration : 40 ms (1.00 video frame)
\n
\nInterleave, preload duration : 500 ms
\n
\nAlternative
\n
\nhttp://postimage.org/image/x1w01tk4/
\nhttp://postimage.org/image/x2wdvgf8/
\n
\nHow To Get Your Maxspeed (uTorrent)
\n
\nTorrent Client - Preferences - Bandwidth - Number of connections - Set aprox. 500 for each
\nTorrent Client - Preferences - BiTorrent - Protocol Encryption - Forced
\nBandwidth Allocation - High (Set download/upload limit - Unlimited)
\nStop Other Active Torrents - Start downloading and wait for connections.
\nEnjoy and Seed for at least 1:1 ratio. Don\'t forget to say thanks/leave reviews.
\nGreets to all actual/future p2p/scene QUALITY groups and affiliate websites.
\nDon\'t trust IMDb robot or bad ratings,always watch some trailers first.
\nIgnore stupid comments/fake/mislabeled/no-DVDrips/CAM/TS/RAR uploads.
\nPlease spread this release/torrent to your friends/forums/etc.
\nIf you need translation subs visit some subtitles sites.
\nReport if you see online streaming or other spam links.
\nRecommended movie player VLC PLAYER.
\n
\n
\n
\n
\nNOTES:: Brings you easy Movie Life As always, Enjoy
\n
\n
\n
\n
\n::Why Complain? Whats Free Is Free:: Be Happy
\n
\n
\n::We are always looking for friends with unreleased DVD\'s, Screeners, R5\'s, Audio, Cams, Silvers,
\n
\n
\n
\n:::::::::::::::::::::::::::::::::::: Respect To :::::::::::::::::::::::::::::::::::::
\n
\n::IMAGiNE,FLAWL3SS,Hive-CM8,DiGiTALiNK,Tranz,Vik,OneTwo,Joey,bob,& our friends on utn and PA::
\n
\n\"and to all of you who support us, Thank-You\"
The Roommate 2011 Tamil DVD Rip XviD 1 CD MP3@Mastitorr/Demonoid.com.txt 42 B
The Roommate 2011 Tamil DVD Rip XviD 1 CD MP3@Mastitorr/movies.nfo 4.858 KB
The Roommate 2011 Tamil DVD Rip XviD 1 CD MP3@Mastitorr/The Roommate (2011) - Official Trailer HD [www.keepvid.com].mp4 9.56 MB
Gathering some info...

Register and log in Isohunt and see no captcha anymore!

4000 symbols left
Hash c28933b8d1f1e7b64e26223c8eff3f2d9aa2b807