Leonard Cohen - Songs From A Room (1969) - Columbia CK 9767 - 1990

Size 156.33 MB   0 seeders     Added 2011-02-16 19:13:54

Stream torrent
Starting‥ You need BitLord! Get it from 1BitLord.com
10
To download or stream you need BitLord. Visit them at BitLord.com
Leonard Cohen - Songs From A Room (1969) FLAC CUE LOG
\n
\n
\n
\n[IMG]image[/IMG]
\n
\n
\n
\n[b][color=blue][i]Songs from a Room is the second album of Canadian musician Leonard Cohen, released in 1969. It reached #63 on the Billboard list and #2 at UK charts.
\nCohen reportedly said he chose producer Bob Johnston to achieve the spartan sound he considered appropriate for his songs, after the disputes he had with John Simon during the mixing sessions of Songs of Leonard Cohen. The album also features some prominent (if strictly ornamental) Jew\'s harp. The album\'s sound is thus closer to the archetype (or stereotype) of an \"early\" Leonard Cohen record.
\nAmong uncredited sessions musicians it is known that Ron Cornelius played acoustic and electric guitar, Charlie Daniels played bass, fiddle and acoustic guitar, Elkin «Bubba» Fowler participated on banjo, bass and acoustic guitar, while producer Bob Johnston played keyboards. Interestingly, Johnston toured with Cohen in 1970 and 1972 (playing keyboards, harmonica and guitar), leading to termination of his collaboration with Bob Dylan.
\nIn sheet music for the album, a song titled \"Priests\" was included, and although reportedly recorded, it didn\'t appear on the actual LP or any other Cohen record. The song was recorded by Judy Collins on her 1967 album Wildflowers, and by Richie Havens on his 1969 album Richard P. Havens, 1983.
\nSongs from a Room was released on CD in 1990. In 2001, French musician Red released a re-recording of the entire album.
\nIn 2009, the album (including the bonus tracks listed below) was included in Hallelujah - The Essential Leonard Cohen Album Collection, an eight-CD box set issued by Sony Music in the Netherlands.
\n
\n[/i][/color][/b]
\n
\n
\n
\n
\n[IMG]image[/IMG]
\n
\n
\n
\n
\n[b][color=blue][i]
\n
\nPersonnel
\n
\nRon Cornelius - acoustic & electric guitar
\nBubba Fowler - banjo, bass, violin, acoustic guitar
\nCharlie Daniels - bass, violin, acoustic guitar
\nBob Johnston - production, keyboards
\nNeil Wilburn - engineer
\n
\nSide one
\n\"Bird on the Wire\" – 3:28
\n\"Story of Isaac\" – 3:38
\n\"A Bunch of Lonesome Heroes\" – 3:18
\n\"The Partisan\" – 3:29
\n\"Seems So Long Ago, Nancy\" – 3:41
\n
\n
\n
\nSide two
\n\"The Old Revolution\" – 4:50
\n\"The Butcher\" – 3:22
\n\"You Know Who I Am\" – 3:32
\n\"Lady Midnight\" – 3:01
\n\"Tonight Will Be Fine\" – 3:53
\n[/i][/color][/b]
\n
\n
\n
\n[CODE]Exact Audio Copy V0.99 prebeta 4 from 23. January 2008
\n
\nEAC extraction logfile from 19. May 2009, 21:28
\n
\nLeonard Cohen / Songs from a Room
\n
\nUsed drive : MAD DOG MD-16XDVD9A4 Adapter: 4 ID: 0
\n
\nRead mode : Secure
\nUtilize accurate stream : Yes
\nDefeat audio cache : Yes
\nMake use of C2 pointers : No
\n
\nRead offset correction : 48
\nOverread into Lead-In and Lead-Out : No
\nFill up missing offset samples with silence : Yes
\nDelete leading and trailing silent blocks : No
\nNull samples used in CRC calculations : Yes
\nUsed interface : Native Win32 interface for Win NT & 2000
\nGap handling : Appended to previous track
\n
\nUsed output format : User Defined Encoder
\nSelected bitrate : 320 kBit/s
\nQuality : High
\nAdd ID3 tag : No
\nCommand line compressor : C:\\Program Files\\Exact Audio Copy\\Flac\\flac.exe
\nAdditional command line options : -V -8 -T \"artist=%a\" -T \"title=%t\" -T \"album=%g\" -T \"date=%y\" -T \"tracknumber=%n\" -T \"genre=%m\" %s
\n
\n
\nTOC of the extracted CD
\n
\n Track | Start | Length | Start sector | End sector
\n ---------------------------------------------------------
\n 1 | 0:00.00 | 3:26.27 | 0 | 15476
\n 2 | 3:26.27 | 3:35.35 | 15477 | 31636
\n 3 | 7:01.62 | 3:12.68 | 31637 | 46104
\n 4 | 10:14.55 | 3:26.22 | 46105 | 61576
\n 5 | 13:41.02 | 3:39.43 | 61577 | 78044
\n 6 | 17:20.45 | 4:46.27 | 78045 | 99521
\n 7 | 22:06.72 | 3:17.25 | 99522 | 114321
\n 8 | 25:24.22 | 3:28.40 | 114322 | 129961
\n 9 | 28:52.62 | 2:56.23 | 129962 | 143184
\n 10 | 31:49.10 | 3:47.40 | 143185 | 160249
\n
\n
\nTrack 1
\n
\n Filename 01 - Bird on the Wire.wav
\n
\n Pre-gap length 0:00:02.00
\n
\n Peak level 36.3 %
\n Track quality 100.0 %
\n Test CRC 6B730E74
\n Copy CRC 6B730E74
\n Cannot be verified as accurate (confidence 8) [515B9D48], AccurateRip returned [C503E55D]
\n Copy OK
\n
\nTrack 2
\n
\n Filename 02 - Story of Isaac.wav
\n
\n Pre-gap length 0:00:01.60
\n
\n Peak level 64.0 %
\n Track quality 100.0 %
\n Test CRC 948ACEBE
\n Copy CRC 948ACEBE
\n Cannot be verified as accurate (confidence 8) [2457A0C3], AccurateRip returned [F4C63278]
\n Copy OK
\n
\nTrack 3
\n
\n Filename 03 - A Bunch of Lonesome Heroes.wav
\n
\n Pre-gap length 0:00:01.53
\n
\n Peak level 61.0 %
\n Track quality 99.9 %
\n Test CRC 0C01DFE2
\n Copy CRC 0C01DFE2
\n Cannot be verified as accurate (confidence 8) [5685CE30], AccurateRip returned [A0817B2D]
\n Copy OK
\n
\nTrack 4
\n
\n Filename 04 - The Partisan.wav
\n
\n Peak level 39.7 %
\n Track quality 100.0 %
\n Test CRC E550A4A1
\n Copy CRC E550A4A1
\n Cannot be verified as accurate (confidence 8) [328A266F], AccurateRip returned [82246C79]
\n Copy OK
\n
\nTrack 5
\n
\n Filename 05 - Seems So Long Ago, Nancy.wav
\n
\n Pre-gap length 0:00:01.73
\n
\n Peak level 34.2 %
\n Track quality 100.0 %
\n Test CRC 4FD760B8
\n Copy CRC 4FD760B8
\n Cannot be verified as accurate (confidence 8) [6D72716F], AccurateRip returned [6A6E92C0]
\n Copy OK
\n
\nTrack 6
\n
\n Filename 06 - The Old Revolution.wav
\n
\n Pre-gap length 0:00:01.60
\n
\n Peak level 56.2 %
\n Track quality 100.0 %
\n Test CRC A655F495
\n Copy CRC A655F495
\n Cannot be verified as accurate (confidence 8) [A75C52E9], AccurateRip returned [B37C9C13]
\n Copy OK
\n
\nTrack 7
\n
\n Filename 07 - The Butcher.wav
\n
\n Pre-gap length 0:00:01.56
\n
\n Peak level 54.2 %
\n Track quality 100.0 %
\n Test CRC 4B320647
\n Copy CRC 4B320647
\n Cannot be verified as accurate (confidence 8) [68CC686C], AccurateRip returned [2FEBC994]
\n Copy OK
\n
\nTrack 8
\n
\n Filename 08 - You Know Who I Am.wav
\n
\n Pre-gap length 0:00:00.53
\n
\n Peak level 49.7 %
\n Track quality 99.9 %
\n Test CRC DBF5CBF3
\n Copy CRC DBF5CBF3
\n Cannot be verified as accurate (confidence 8) [89D76745], AccurateRip returned [2DC86F32]
\n Copy OK
\n
\nTrack 9
\n
\n Filename 09 - Lady Midnight.wav
\n
\n Pre-gap length 0:00:01.53
\n
\n Peak level 51.1 %
\n Track quality 99.9 %
\n Test CRC C2369418
\n Copy CRC C2369418
\n Cannot be verified as accurate (confidence 8) [77DBCB20], AccurateRip returned [2D04A16F]
\n Copy OK
\n
\nTrack 10
\n
\n Filename 10 - Tonight Will Be Fine.wav
\n
\n Pre-gap length 0:00:00.20
\n
\n Peak level 35.8 %
\n Track quality 100.0 %
\n Test CRC 513BAF4A
\n Copy CRC 513BAF4A
\n Cannot be verified as accurate (confidence 7) [9D6BC028], AccurateRip returned [D861D5E4]
\n Copy OK
\n
\n
\nNo tracks could be verified as accurate
\nYou may have a different pressing from the one(s) in the database
\n
\nNo errors occurred
\n
\nEnd of status report
\n
\n[/CODE]
\n
\n
\n
\n[i][color=#000099][b]All credits go to cromags for the original upload on what
\n20 kb/s 24/7 salvo imprevisti[/b][/color][/i]
\n
\n
\n
\n[IMG]image[/IMG]
Leonard Cohen - Songs From A Room (1969) - Columbia CK 9767 - 1990/01 - Bird on the Wire.flac 15.414 MB
Leonard Cohen - Songs From A Room (1969) - Columbia CK 9767 - 1990/02 - Story of Isaac.flac 15.029 MB
Leonard Cohen - Songs From A Room (1969) - Columbia CK 9767 - 1990/03 - A Bunch of Lonesome Heroes.flac 16.419 MB
Gathering some info...

Register and log in Isohunt and see no captcha anymore!

4000 symbols left
Hash c6fa5982634028e624d09c55e7faca5095a70406

Related torrents for "Leonard Cohen - Songs From A Room (1969) - Columbia CK 9767 - 1990"

Torrent search:

1990