imdb
rating

6.4
Just Go With It

Just Go With It (2011)

Comedy, Romance

Full description

Just Go with It (2011) DVDSCR AC3 XViD.torrent

Size 981.39 MB   0 seeders     Added 2011-02-16 21:41:26

Stream torrent
Starting‥ You need BitLord! Get it from BitLord.com
To download or stream you need BitLord. Visit them at BitLord.com
File:: Just Go with It (2011) DVDSCR AC3 XViD

Video Source:: ....Team Serenity. Killin it, thx

Audio Source:: ....own, thx matey

Language::English

Genre::Comedy | Romance

IMDB::http://www.imdb.com/title/tt1564367/


A man enlists the help of a woman and her kids to land the woman of his dreams.


Specs::


General



Format : AVI

Format/Info : Audio Video Interleave

Duration : 1h 50mn

Overall bit rate : 1 761 Kbps

Writing application : VirtualDubMod 1.5.10.2 (build 2540/release)

Writing library : VirtualDubMod build 2540/release



Video

ID : 0

Format : MPEG-4 Visual

Format profile : Advanced Simple@L5

Format settings, BVOP : Yes

Format settings, QPel : No

Format settings, GMC : No warppoints

Format settings, Matrix : Default (H.263)

Muxing mode : Packed bitstream

Codec ID : XVID

Codec ID/Hint : XviD

Duration : 1h 50mn

Bit rate : 1 495 Kbps

Width : 720 pixels

Height : 306 pixels

Display aspect ratio : 2.35:1

Frame rate : 25.000 fps

Color space : YUV

Chroma subsampling : 4:2:0

Bit depth : 8 bits

Scan type : Progressive

Bits/(Pixel*Frame) : 0.271

Stream size : 1.16 GiB (85%)

Writing library : XviD 1.2.1 (UTC 2008-12-04)



Audio

ID : 1

Format : MPEG Audio

Format version : Version 1

Format profile : Layer 3

Codec ID : 55

Codec ID/Hint : MP3

Duration : 1h 50mn

Bit rate mode : Constant

Bit rate : 256 Kbps

Channel(s) : 2 channels

Sampling rate : 44.1 KHz

Stream size : 204 MiB (15%)

Alignment : Split accross interleaves

Interleave, duration : 40 ms (1.00 video frame)

Interleave, preload duration : 500 ms
Just Go with It (2011) DVDSCR AC3 XViD.avi 981.317 MB
MOVIE.nfo 4.858 KB
Torrent downloaded from extratorrtent.com.txt 42 B
Gathering some info...

Register and log in Isohunt and see no captcha anymore!

4000 symbols left
Hash A08478439FE426D47D7295F2EDF4E96BE8508CE5

Related torrents for "Just Go with It (2011) DVDSCR AC3 XViD.torrent"

Torrent search:

screener 2011