imdb
rating

5.6
Green Lantern

Green Lantern (2011)

Action, Adventure, Science Fiction, Thriller

Full description

Green Lantern DvDScr XviD[LEAKED RELEASE].torrent

Size 927.913 MB   0 seeders     Added 2011-02-17 20:54:40

Stream torrent
Starting‥ You need BitLord! Get it from BitLord.com
To download or stream you need BitLord. Visit them at BitLord.com
File:: Green Lantern DvDScr XviD[LEAKED RELEASE]

Video Source:: ....Team Serenity. Killin it, thx

Audio Source:: ....own, thx matey

Language::English

Genre::Action | Sci-Fi

IMDB::http://www.imdb.com/title/tt1133985/


A test pilot is granted a mystical green ring that bestows him 

with otherworldly powers, as well as membership into an 

intergalactic squadron tasked with keeping peace within the 

universe.



Specs::



General



Format : AVI

Format/Info : Audio Video Interleave

Duration : 1h 18mn

Overall bit rate : 1 761 Kbps

Writing application : VirtualDubMod 1.5.10.2 (build 2540/release)

Writing library : VirtualDubMod build 2540/release



Video

ID : 0

Format : MPEG-4 Visual

Format profile : Advanced Simple@L5

Format settings, BVOP : Yes

Format settings, QPel : No

Format settings, GMC : No warppoints

Format settings, Matrix : Default (H.263)

Muxing mode : Packed bitstream

Codec ID : XVID

Codec ID/Hint : XviD

Duration : 1h 18mn

Bit rate : 1 495 Kbps

Width : 720 pixels

Height : 306 pixels

Display aspect ratio : 2.35:1

Frame rate : 25.000 fps

Color space : YUV

Chroma subsampling : 4:2:0

Bit depth : 8 bits

Scan type : Progressive

Bits/(Pixel*Frame) : 0.271

Stream size : 1.16 GiB (85%)

Writing library : XviD 1.2.1 (UTC 2008-12-04)



Audio

ID : 1

Format : MPEG Audio

Format version : Version 1

Format profile : Layer 3

Codec ID : 55

Codec ID/Hint : MP3

Duration : 1h 18mn

Bit rate mode : Constant

Bit rate : 256 Kbps

Channel(s) : 2 channels

Sampling rate : 44.1 KHz

Stream size : 204 MiB (15%)

Alignment : Split accross interleaves

Interleave, duration : 40 ms (1.00 video frame)

Interleave, preload duration : 500 ms
Demonoid.com.txt 42 B
Green Lantern DvDScr XviD[LEAKED RELEASE].avi 927.839 MB
MOVIE.nfo 4.858 KB
Gathering some info...

Register and log in Isohunt and see no captcha anymore!

4000 symbols left
Hash 9ABD161F09D500CA7A1B660FD6133039B38931D8

Related torrents for "Green Lantern DvDScr XviD[LEAKED RELEASE].torrent"

Torrent search:

screener