imdb
rating

6.1
I Am Number Four

I Am Number Four (2011)

Action, Adventure, Science Fiction, Thriller

Full description

I Am Number Four[2011] BRRip XviD By MegaPlay

Size 900.65 MB   0 seeders     Added 2011-02-17 23:12:54

Stream torrent
Starting‥ You need BitLord! Get it from BitLord.com
10
To download or stream you need BitLord. Visit them at BitLord.com
image

I Am Number Four[2011] BRRip XviD By MegaPlay
Genre:Action | Sci-Fi | Thriller
Language:English
IMDb:http://www.imdb.com/title/tt1464540/
Source:Jailbait/Imagine Thx.


Format : AVI
Format/Info : Audio Video Interleave
Duration : 1h 42mn
Overall bit rate : 1 112 Kbps


Video
Codec ID/Hint : XviD
Duration : 1h 42mn
Bit rate : 846 Kbps
Width : 688 pixels
Height : 384 pixels
Display aspect ratio : 16:9
Frame rate : 25.000 fps
Color space : YUV
Chroma subsampling : 4:2:0
Bit depth : 8 bits
Scan type : Progressive
Bits/(Pixel*Frame) : 0.128
Stream size : 622 MiB (76%)
Writing library : XviD 1.2.1

Audio
ID : 1
Format : AC-3
Format/Info : Audio Coding 3
Mode extension : CM (complete main)
Codec ID : 2000
Duration : 1h 42mn
Bit rate mode : Constant
Bit rate : 256 Kbps
Channel(s) : 2 channels
Channel positions : Front: L R
Sampling rate : 48.0 KHz
Bit depth : 16 bits
Stream size : 188 MiB (23%)
Alignment : Aligned on interleaves
Interleave, duration : 40 ms (1.00 video frame)
Interleave, preload duration : 512 ms


Plot:
John is an extraordinary teen, masking his true identity and passing as a typical high

school student to elude a deadly enemy seeking to destroy him. Three like him have already

been killed ... he is Number Four.
Demonoid.com.txt 42 B
I Am Number Four[2011] BRRip XviD By MegaPlay.avi 900.576 MB
MOVIE.nfo 4.858 KB
Gathering some info...

Register and log in Isohunt and see no captcha anymore!

4000 symbols left
Hash E912A07D6EA7974CCD31717821ACF7C4952ADAFB

Related torrents for "I Am Number Four[2011] BRRip XviD By MegaPlay"

Torrent search:

bd 2011