imdb
rating

6.1
I Am Number Four

I Am Number Four (2011)

Action, Adventure, Science Fiction, Thriller

Full description

File:: I.Am.Number.Four.2011.TS.XViD-T0XiC-iNK

Size 979.293 MB   0 seeders     Added 2011-02-18 01:08:19

Stream torrent
Starting‥ You need BitLord! Get it from BitLord.com
8.8
To download or stream you need BitLord. Visit them at BitLord.com
::::::::::::::Enjoy:Another:Release:From:T0XiC::::::::::::::



File:: I.Am.Number.Four.2011.TS.XViD-T0XiC-iNK

Video Source:: ....Team Serenity. Killin it, thx

Audio Source:: ....own, thx matey

Language::English

IMDB::http://www.imdb.com/title/tt1464540/


John is an extraordinary teen, masking his true identity and passing as a typical high school student to elude a deadly enemy seeking to destroy him. Three like him have already been killed ... he is Number Four


Specs::



General



Format : AVI

Format/Info : Audio Video Interleave

File size : 831mb

Duration : 1h 51mn

Overall bit rate : 1 761 Kbps

Writing application : VirtualDubMod 1.5.10.2 (build 2540/release)

Writing library : VirtualDubMod build 2540/release



Video

ID : 0

Format : MPEG-4 Visual

Format profile : Advanced Simple@L5

Format settings, BVOP : Yes

Format settings, QPel : No

Format settings, GMC : No warppoints

Format settings, Matrix : Default (H.263)

Muxing mode : Packed bitstream

Codec ID : XVID

Codec ID/Hint : XviD

Duration : 1h 51mn

Bit rate : 1 495 Kbps

Width : 720 pixels

Height : 306 pixels

Display aspect ratio : 2.35:1

Frame rate : 25.000 fps

Color space : YUV

Chroma subsampling : 4:2:0

Bit depth : 8 bits

Scan type : Progressive

Bits/(Pixel*Frame) : 0.271

Stream size : 1.16 GiB (85%)

Writing library : XviD 1.2.1 (UTC 2008-12-04)



Audio

ID : 1

Format : MPEG Audio

Format version : Version 1

Format profile : Layer 3

Codec ID : 55

Codec ID/Hint : MP3

Duration : 1h 51mn

Bit rate mode : Constant

Bit rate : 256 Kbps

Channel(s) : 2 channels

Sampling rate : 44.1 KHz

Stream size : 204 MiB (15%)

Alignment : Split accross interleaves

Interleave, duration : 40 ms (1.00 video frame)

Interleave, preload duration : 500 ms







NOTES:: T0XiC-iNK brings you the first TS of Green Hornet. As always, Enjoy





::Why Complain? Whats Free Is Free::



::iNK is currently a free agent looking for work, if you would like iNK's touch, give me a email at: ...digital.ink@live.com or MSN add me.



::We are always looking for friends with unreleased DVD's, Screeners, R5's, Audio, Cams, Silvers,

...and any other good sources you may have to offer - contact us: t0xicreleases@hushmail.com



:::::::::::::::::::::::::::::::::::: Respect To :::::::::::::::::::::::::::::::::::::

::IMAGiNE,FLAWL3SS,Hive-CM8,DiGiTALiNK,Tranz,Vik,OneTwo,Joey,bob,& our friends on utn and PA::

"and to all of you who support us, Thank-You"

SCREENSHOTS:

http://postimage.org/image/1k3h15jxg/

http://postimage.org/image/360xkuddw/

http://postimage.org/image/1w8mmzwsk/

http://postimage.org/image/1gvtygwis/

http://postimage.org/image/1k40vlpus/

http://postimage.org/image/360sm8bwk/
Demonoid.com.txt 42 B
I.Am.Number.Four.2011.TS.XViD-T0XiC-iNK.avi 979.219 MB
MOVIE.nfo 4.858 KB
Gathering some info...

Register and log in Isohunt and see no captcha anymore!

4000 symbols left
Hash 15CD6B7370BD44CF60236FC9F3AA3B740E9023CF

Related torrents for "File:: I.Am.Number.Four.2011.TS.XViD-T0XiC-iNK"

Torrent search:

telesync 2011