imdb
rating

6.3
Cedar Rapids

Cedar Rapids (2011)

Comedy

Full description
quality   dvd screener bd x264 hd dvdrip

Cedar Rapids 2011 DVDSCR XviD-ViP3R[ENG]

Size 789.894 MB   0 seeders     Added 2011-02-19 23:35:56

Stream torrent
Starting‥ You need BitLord! Get it from BitLord.com
To download or stream you need BitLord. Visit them at BitLord.com
Format : AVI
Format/Info : Audio Video Interleave
File size : 762.83 MiB
Duration : 1h 26mn
Overall bit rate : 1 184 Kbps
Writing application : VirtualDubMod 1.5.10.2 (build 2540/release)
Writing library : VirtualDub build 32839/release

Video
ID : 0
Format : MPEG-4 Visual
Format profile : Advanced Simple@L5
Format settings, BVOP : Yes
Format settings, QPel : No
Format settings, GMC : No warppoints
Format settings, Matrix : Custom
Codec ID : XVID
Codec ID/Hint : XviD
Duration : 1h 26mn
Bit rate : 1 042 Kbps
Width : 692 pixels
Height : 294 pixels
Display aspect ratio : 2.35:1
Frame rate : 23.976 fps
Color space : YUV
Chroma subsampling : 4:2:0
Bit depth : 8 bits
Scan type : Progressive
Bits/(Pixel*Frame) : 0.214
Stream size : 721 MiB (88%)
Writing library : XviD 1.2.1 (UTC 2008-12-04)

Audio
ID : 1
Format : MPEG Audio
Format version : Version 1
Format profile : Layer 3
Mode : Joint stereo
Mode extension : MS Stereo
Codec ID : 55
Codec ID/Hint : MP3
Duration : 1h 26mn
Bit rate mode : Variable
Bit rate : 128 Kbps
Channel(s) : 2 channels
Sampling rate : 48.0 KHz
Stream size : 99.2 MiB (11%)
Alignment : Aligned on interleaves
Interleave, duration : 24 ms (0.58 video frame)
Interleave, preload duration : 142 ms
Writing library : LAME3.90.
Encoding settings : -m j -V 4 -q 2 -lowpass 17.6 --abr 128

http://www.imdb.com/title/tt1477837/

Genres: Comedy

Storyline

Tim Lippe has no idea what he's in for when he's sent to Cedar Rapids, Iowa to represent his company at an annual insurance convention, where he soon finds himself under the "guidance" of three convention veterans.

cast:

Ed Helms 	... 	Tim Lippe
John C. Reilly 	... 	Dean Ziegler
Anne Heche 	... 	Joan Ostrowski-Fox
Isiah Whitlock Jr. 	... 	Ronald Wilkes
Stephen Root 	... 	Bill Krogstad
Kurtwood Smith 	... 	Orin Helgesson
Alia Shawkat 	... 	Bree
Rob Corddry 	... 	Gary
Mike O'Malley 	... 	Mike Pyle
Sigourney Weaver 	... 	Macy Vanderhei
Inga R. Wilson 	... 	Gwen Lemke
Mike Birbiglia 	... 	Trent
Seth Morris 	... 	Uncle Ken
Christopher Lemon 	... 	Rock Climbing Dude #1
Sudhi Rajagopal 	... 	Rock Climbing Dude #2 
Cedar Rapids 2011 DVDSCR XviD-ViP3R[ENG].avi 753.714 MB
sample/Cedar Rapids 2011 sample.avi 36.18 MB
tracked_and_downloaded_from_torrentday.com.txt 42 B
Gathering some info...

Register and log in Isohunt and see no captcha anymore!

4000 symbols left
Hash A6F9BDECB88908572D3358F6945D9BAB3C9BACD4

Related torrents for "Cedar Rapids 2011 DVDSCR XviD-ViP3R[ENG]"

Torrent search:

english screener 2011