Vanishing on 7th Street 2011 DvdScr.Xvid {1337x}-Noir

Size 735.354 MB   0 seeders     Added 2011-02-20 00:11:41

Stream torrent
Starting‚Ä• You need BitLord! Get it from BitLord.com
To download or stream you need BitLord. Visit them at BitLord.com
Format : AVI
Format/Info : Audio Video Interleave
File size : 811.79 MiB
Duration : 2h 05mn
Overall bit rate : 1 184 Kbps
Writing application : VirtualDubMod 1.5.10.2 (build 2540/release)
Writing library : VirtualDub build 32839/release

Video
ID : 0
Format : MPEG-4 Visual
Format profile : Advanced Simple@L5
Format settings, BVOP : Yes
Format settings, QPel : No
Format settings, GMC : No warppoints
Format settings, Matrix : Custom
Codec ID : XVID
Codec ID/Hint : XviD
Duration : 2h 05mn
Bit rate : 1 042 Kbps
Width : 692 pixels
Height : 294 pixels
Display aspect ratio : 2.35:1
Frame rate : 23.976 fps
Color space : YUV
Chroma subsampling : 4:2:0
Bit depth : 8 bits
Scan type : Progressive
Bits/(Pixel*Frame) : 0.214
Stream size : 735 MiB (88%)
Writing library : XviD 1.2.1 (UTC 2008-12-04)

Audio
ID : 1
Format : MPEG Audio
Format version : Version 1
Format profile : Layer 3
Mode : Joint stereo
Mode extension : MS Stereo
Codec ID : 55
Codec ID/Hint : MP3
Duration : 2h 05mn
Bit rate mode : Variable
Bit rate : 128 Kbps
Channel(s) : 2 channels
Sampling rate : 48.0 KHz
Stream size : 99.2 MiB (11%)
Alignment : Aligned on interleaves
Interleave, duration : 24 ms (0.58 video frame)
Interleave, preload duration : 142 ms
Writing library : LAME3.90.
Encoding settings : -m j -V 4 -q 2 -lowpass 17.6 --abr 128

http://www.imdb.com/title/tt1452628/

Genres: Horror | Mystery | Thriller

Storyline

When a massive power outage plunges the city of Detroit into total darkness, a disparate group of individuals find themselves alone. The entire city's population has vanished into thin air, leaving behind heaps of empty clothing, abandoned cars and lengthening shadows. Soon the daylight begins to disappear completely, and as the survivors gather in an abandoned tavern, they realize the darkness is out to get them, and only their rapidly diminishing light sources can keep them safe.

cast:

Hayden Christensen ... 	Luke
John Leguizamo 	... 	Paul
Thandie Newton 	... 	Rosemary
Jacob Latimore 	... 	James
Taylor Groothuis ... 	Briana
Jordan Trovillion ... 	Concession Girl
Arthur Cartwright ... 	Security Guard
Neal Huff 	... 	Chicago Reporter
Hugh Maguire 	... 	Patient
Erin Nicole Brolley ... Paige
Stephen Clark 	... 	Male TV Anchor
Carolyn Clifford-Taylor ... 	Female TV Anchor
Larry Fessenden ... 	Bike Messenger
Nick Yu 	... 	Chinese Reporter 
tracked_and_downloaded_from_h33t.com.txt 36 B
tracked_and_downloaded_from_torrentday.com.txt 42 B
Vanishing on 7th Street 2011 DvdScr.Xvid {1337x}-Noir.avi 735.354 MB
Gathering some info...

Register and log in Isohunt and see no captcha anymore!

4000 symbols left
Hash ED96B91CAB50682F5AEFFB2F6035C0DE301700B6