imdb
rating

6.2
No Strings Attached

No Strings Attached (2011)

Comedy, Romance

Full description
quality   dvdrip telesync

No Strings Attached 2011 DVDRip XviD-FREE

Size 815.639 MB   0 seeders     Added 2011-02-20 01:56:43

Stream torrent
Starting‥ You need BitLord! Get it from BitLord.com
10
To download or stream you need BitLord. Visit them at BitLord.com
Format : AVI
Format/Info : Audio Video Interleave
File size : 780.17 MiB
Duration : 1h 48mn
Overall bit rate : 1 184 Kbps
Writing application : VirtualDubMod 1.5.10.2 (build 2540/release)
Writing library : VirtualDub build 32839/release

Video
ID : 0
Format : MPEG-4 Visual
Format profile : Advanced Simple@L5
Format settings, BVOP : Yes
Format settings, QPel : No
Format settings, GMC : No warppoints
Format settings, Matrix : Custom
Codec ID : XVID
Codec ID/Hint : XviD
Duration : 1h 48mn
Bit rate : 1 042 Kbps
Width : 692 pixels
Height : 294 pixels
Display aspect ratio : 2.35:1
Frame rate : 23.976 fps
Color space : YUV
Chroma subsampling : 4:2:0
Bit depth : 8 bits
Scan type : Progressive
Bits/(Pixel*Frame) : 0.214
Stream size : 711 MiB (88%)
Writing library : XviD 1.2.1 (UTC 2008-12-04)

Audio
ID : 1
Format : MPEG Audio
Format version : Version 1
Format profile : Layer 3
Mode : Joint stereo
Mode extension : MS Stereo
Codec ID : 55
Codec ID/Hint : MP3
Duration : 1h 48mn
Bit rate mode : Variable
Bit rate : 128 Kbps
Channel(s) : 2 channels
Sampling rate : 48.0 KHz
Stream size : 99.2 MiB (11%)
Alignment : Aligned on interleaves
Interleave, duration : 24 ms (0.58 video frame)
Interleave, preload duration : 142 ms
Writing library : LAME3.90.
Encoding settings : -m j -V 4 -q 2 -lowpass 17.6 --abr 128

http://www.imdb.com/title/tt1411238/


Users: 4.6/10 (1,561 votes) 44 reviews | Critics: 60 reviews Metascore: 25/100 (based on 13 reviews from Metacritic.com)

Storyline

A guy and girl try to keep their relationship strictly physical, but it's not long before they learn that they want something more.

Director:
Ivan Reitman
Writer:
Elizabeth Meriwether (screenplay), Michael Samonek (story)
Stars:
Natalie Portman, Ashton Kutcher and Kevin Kline
No Strings Attached 2011 DVDRip XviD-FREE.avi 777.174 MB
sample/No Strings Attached 2011 sample.avi 38.464 MB
tracked_and_downloaded_from_torrentday.com.txt 42 B
Gathering some info...

Register and log in Isohunt and see no captcha anymore!

4000 symbols left
Hash 0525C4333FD93DCF265980DF2A76321E3A821756

Related torrents for "No Strings Attached 2011 DVDRip XviD-FREE"

Torrent search:

dvdrip 2011