The Way Back 2011 DVDRip

Size 765.954 MB   0 seeders     Added 2011-02-21 04:59:14

Stream torrent
Starting‥ You need BitLord! Get it from BitLord.com
To download or stream you need BitLord. Visit them at BitLord.com
Format : AVI
Format/Info : Audio Video Interleave
File size : 747.57 MiB
Duration : 2h 13mn
Overall bit rate : 1 184 Kbps
Writing application : VirtualDubMod 1.5.10.2 (build 2540/release)
Writing library : VirtualDub build 32839/release

Video
ID : 0
Format : MPEG-4 Visual
Format profile : Advanced Simple@L5
Format settings, BVOP : Yes
Format settings, QPel : No
Format settings, GMC : No warppoints
Format settings, Matrix : Custom
Codec ID : XVID
Codec ID/Hint : XviD
Duration : 2h 13mn
Bit rate : 1 042 Kbps
Width : 692 pixels
Height : 294 pixels
Display aspect ratio : 2.35:1
Frame rate : 23.976 fps
Color space : YUV
Chroma subsampling : 4:2:0
Bit depth : 8 bits
Scan type : Progressive
Bits/(Pixel*Frame) : 0.214
Stream size : 712 MiB (88%)
Writing library : XviD 1.2.1 (UTC 2008-12-04)

Audio
ID : 1
Format : MPEG Audio
Format version : Version 1
Format profile : Layer 3
Mode : Joint stereo
Mode extension : MS Stereo
Codec ID : 55
Codec ID/Hint : MP3
Duration : 2h 13mn
Bit rate mode : Variable
Bit rate : 128 Kbps
Channel(s) : 2 channels
Sampling rate : 48.0 KHz
Stream size : 99.2 MiB (11%)
Alignment : Aligned on interleaves
Interleave, duration : 24 ms (0.58 video frame)
Interleave, preload duration : 142 ms
Writing library : LAME3.90.
Encoding settings : -m j -V 4 -q 2 -lowpass 17.6 --abr 128

http://www.imdb.com/title/tt1023114/

Genres: Adventure | Drama 

Storyline

Siberian gulag escapees walk 4000 miles overland to freedom in India.

cast:

Dragos Bucur 	... 	Zoran
Colin Farrell 	... 	Valka
Ed Harris 	... 	Mr. Smith
Alexandru Potocean 	... 	Tomasz
Saoirse Ronan 	... 	Irena
Gustaf Skarsgård 	... 	Voss
Mark Strong 	... 	Khabarov
Jim Sturgess 	... 	Janusz
Sebastian Urzendowsky 	... 	Kazik
Zahary Baharov 	... 	Interrogator
Sally Edwards 	... 	Janusz's Wife, 1939
Igor Gnezdilov 	... 	Bohdan
Dejan Angelov 	... 	Andrei
Stanislav Pishtalov 	... 	Commandant
Mariy Grigorov 	... 	Lazar 
The Way Back 2011 DVDRip.avi 765.954 MB
tracked_and_downloaded_from_h33t.com.txt 36 B
tracked_and_downloaded_from_torrentday.com.txt 42 B
Gathering some info...

Register and log in Isohunt and see no captcha anymore!

4000 symbols left
Hash 9CF94573D72D6418E4EBCEE2296CE22A28B868A0

Related torrents for "The Way Back 2011 DVDRip"

Torrent search:

dvdrip 2011