Red River 2011 DVDRip Xvid BigPerm LKRG

Size 1.505 GB   0 seeders     Added 2011-02-24 01:58:54

Stream torrent
Starting‥ You need BitLord! Get it from BitLord.com
To download or stream you need BitLord. Visit them at BitLord.com
Video

ID                               : 0

Format                           : MPEG-4 Visual

Format profile                   : Advanced Simple@L5

Format settings, BVOP            : Yes

Format settings, QPel            : No

Format settings, GMC             : No warppoints

Format settings, Matrix          : Default (H.263)

Muxing mode                      : Packed bitstream

Codec ID                         : XVID

Codec ID/Hint                    : XviD

Duration                         : 1h 17mn

Bit rate                         : 2 322 Kbps

Width                            : 640 pixels

Height                           : 270 pixels

Display aspect ratio             : 2.35:1

Frame rate                       : 29.970 fps

Color space                      : YUV

Chroma subsampling               : 4:2:0

Bit depth                        : 8 bits

Scan type                        : Progressive

Compression mode                 : Lossy

Bits/(Pixel*Frame)               : 0.448

Stream size                      : 1.26 GiB (90%)

Writing library                  : XviD 1.2.1 (UTC 2008-12-04)



Audio

ID                               : 1

Format                           : AC-3

Format/Info                      : Audio Coding 3

Mode extension                   : CM (complete main)

Codec ID                         : 2000

Duration                         : 1h 17mn

Bit rate mode                    : Constant

Bit rate                         : 256 Kbps

Channel(s)                       : 2 channels

Channel positions                : Front: L R

Sampling rate                    : 48.0 KHz

Bit depth                        : 16 bits

Compression mode                 : Lossy

Stream size                      : 142 MiB (10%)

Alignment                        : Aligned on interleaves

Interleave, duration             : 33 ms (1.00 video frame)

Interleave, preload duration     : 512 ms

Language                         : English







Set in a small town in the backwoods of Kentucky, RED RIVER tells the tale of Roland Thatcher: a

family man, a business man, a man of God...and a man who doesn't take kindly to strangers. When a group

of city kids sets up camp on the outskirts of his property, they spark a chain of events culminating in

bloodshed, dismemberment and mass murder. As a local, fledgling reporter inches closer to the Thatcher

property, the shocking truth about Roland and his 'family' may finally emerge...
LKRG_NFO.nfo 9.505 KB
RR_LKRG.avi 1.505 GB
Gathering some info...

Register and log in Isohunt and see no captcha anymore!

4000 symbols left
Hash 2D7943C12D0C5C96867C1BED55B6D67E5898E79D

Related torrents for "Red River 2011 DVDRip Xvid BigPerm LKRG"

Torrent search:

dvdrip 2011