imdb
rating

6.6
Edge of Darkness

Edge of Darkness (2010)

Crime, Drama, Mystery, Thriller

Full description

Edge Of Darkness 2010 DVDRip XviD-PRESTIGE

Size 737.709 MB   0 seeders     Added 2011-02-25 04:57:19

Stream torrent
Starting‥ You need BitLord! Get it from BitLord.com
To download or stream you need BitLord. Visit them at BitLord.com
General info



Director: Martin Campbell Runtime: 117 mins

Year: 2010 Writters: William Monahan, Andrew Bovell, Troy Kennedy-Martin,

Country: UK, USA Producers: Tim Headington,Graham King,James Laurenson,Gail Lyon,Lucienne Papon,Kwame Parker,Danton Rissner,David M. Thompson,E. Bennett Walsh,Suzanne Warren,Michael Wearing,

Rating: 6.7 Language: English

Genre: Crime, Drama, Thriller Music: Howard Shore



Format                           : AVI

Format/Info                      : Audio Video Interleave

File size                        : 703 MiB

Duration                         : 1h 51mn

Overall bit rate                 : 881 Kbps

Writing application              : VirtualDubMod 1.5.4.1 (build 2178/release)

Writing library                  : VirtualDubMod build 2178/release

Encoder : Mazz



** ** ** ** ** ** ** ** **



Audio



ID                               : 1

Format                           : AC-3

Format/Info                      : Audio Coding 3

Mode extension                   : CM (complete main)

Codec ID                         : 2000

Duration                         : 1h 51mn

Bit rate mode                    : Constant

Bit rate                         : 384 Kbps

Channel(s)                       : 6 channels

Channel positions                : Front: L C R, Side: L R, LFE

Sampling rate                    : 48.0 KHz

Bit depth                        : 16 bits

Compression mode                 : Lossy

Stream size                      : 307 MiB (44%)

Alignment                        : Aligned on interleaves

Interleave, duration             : 96 ms (2.40 video frames)

Interleave, preload duration     : 96 ms



** ** ** ** ** ** ** ** **



Video



ID                               : 0

Format                           : MPEG-4 Visual

Format profile                   : Advanced Simple@L5

Format settings, BVOP            : 1

Format settings, QPel            : No

Format settings, GMC             : No warppoints

Format settings, Matrix          : Custom

Codec ID                         : XVID

Codec ID/Hint                    : XviD

Duration                         : 1h 51mn

Bit rate                         : 490 Kbps

Width                            : 608 pixels

Height                           : 256 pixels

Display aspect ratio             : 2.35:1

Frame rate                       : 25.000 fps

Color space                      : YUV

Chroma subsampling               : 4:2:0

Bit depth                        : 8 bits

Scan type                        : Progressive

Compression mode                 : Lossy

Bits/(Pixel*Frame)               : 0.126

Stream size                      : 391 MiB (56%)

Writing library                  : XviD 1.2.1 (UTC 2008-12-04)



** ** ** ** ** ** ** ** **



Plot  



As homicide detective Thomas Craven investigates the death of his activist daughter, he uncovers not only her secret life, but a corporate cover-up and government collusion that attracts an agent tasked with cleaning up the evidence.



** ** ** ** ** ** ** ** **



Cast  



Mel Gibson ... Craven

Ray Winstone ... Jedburgh

Danny Huston ... Jack Bennett

Bojana Novakovic ... Emma Craven

Shawn Roberts ... Burnham
Edge Of Darkness DVDRip XviD-PRESTIGE.avi 737.386 MB
EOD1.png 126.272 KB
EOD2.png 184.657 KB
Gathering some info...

Register and log in Isohunt and see no captcha anymore!

4000 symbols left
Hash 9AB26688337A175E7B65AE1A5ABCCCB1299CF15E

Related torrents for "Edge Of Darkness 2010 DVDRip XviD-PRESTIGE"

Torrent search:

dvdrip 2010