imdb
rating

4.6
1 Day

1 Day (2009)

Crime, Documentary, Drama, Thriller, Foreign

Full description

1 Day 2009 DVDRip x264-Jucified (400MB)

Size 419.624 MB   0 seeders     Added 2011-02-25 05:00:05

Stream torrent
Starting‥ You need BitLord! Get it from BitLord.com
To download or stream you need BitLord. Visit them at BitLord.com
MDB Link/Rating


http://www.imdb.com/title/tt1268158/



4.0/10



Source Used



R2 PAL DVD



General



Complete name                    : 1 Day 2009 DVDRip x264-Jucified (400MB).mp4

Format                           : MPEG-4

Format profile                   : Base Media

Codec ID                         : isom

File size                        : 400 MiB

Duration                         : 1h 38mn

Overall bit rate                 : 570 Kbps



Video



Format                           : AVC

Format/Info                      : Advanced Video Codec

Format profile                   : High@L4.1

Format settings, CABAC           : Yes

Format settings, ReFrames        : 2 frames

Codec ID                         : avc1

Codec ID/Info                    : Advanced Video Coding

Duration                         : 1h 38mn

Bit rate mode                    : Variable

Bit rate                         : 535 Kbps

Maximum bit rate                 : 1 795 Kbps

Width                            : 720 pixels

Height                           : 384 pixels

Display aspect ratio             : 1.875

Frame rate mode                  : Constant

Frame rate                       : 25.000 fps

Resolution                       : 24 bits

Colorimetry                      : 4:2:0

Scan type                        : Progressive

Bits/(Pixel*Frame)               : 0.077

Stream size                      : 375 MiB (94%)



Audio



Format                           : AAC

Format/Info                      : Advanced Audio Codec

Format version                   : Version 4

Format profile                   : LC

Format settings, SBR             : No

Codec ID                         : 40

Duration                         : 1h 38mn

Bit rate mode                    : Variable

Bit rate                         : 32.0 Kbps

Maximum bit rate                 : 40.2 Kbps

Channel(s)                       : 2 channels

Channel positions                : L R

Sampling rate                    : 48.0 KHz

Resolution                       : 16 bits

Stream size                      : 22.5 MiB (6%)
1 Day 2009 DVDRip x264-Jucified (400MB).mp4 419.624 MB
Gathering some info...

Register and log in Isohunt and see no captcha anymore!

4000 symbols left
Hash A1ABDFA2F4D04F830E54EDDF75E7E00D7C52A4FF

Related torrents for "1 Day 2009 DVDRip x264-Jucified (400MB)"

Torrent search:

dvdrip 2009 x264