Kings of Leon - Only by the Night (2008) (EAC FLAC CUE) [TNTVillage.org]

Size 282.372 MB   0 seeders     Added 2011-02-26 17:17:21

Stream torrent
Starting‥ You need BitLord! Get it from 1BitLord.com
10
To download or stream you need BitLord. Visit them at BitLord.com
Exact Audio Copy V1.0 beta 1 from 15. November 2010



EAC extraction logfile from 24. February 2011, 23:53



Kings of Leon / Only by the Night



Used drive  : Optiarc DVD RW AD-7200S   Adapter: 0  ID: 0



Read mode               : Secure

Utilize accurate stream : Yes

Defeat audio cache      : No

Make use of C2 pointers : Yes



Read offset correction                      : 48

Overread into Lead-In and Lead-Out          : No

Fill up missing offset samples with silence : Yes

Delete leading and trailing silent blocks   : No

Null samples used in CRC calculations       : No

Used interface                              : Native Win32 interface for Win NT & 2000

Gap handling                                : Not detected, thus appended to previous track



Used output format              : User Defined Encoder

Selected bitrate                : 768 kBit/s

Quality                         : High

Add ID3 tag                     : No

Command line compressor         : C:\Programmi\Exact Audio Copy\FLAC\FLAC.EXE

Additional command line options : -8 -V -T "ARTIST=%a" -T "TITLE=%t" -T "ALBUM=%g" -T "DATE=%y" -T "TRACKNUMBER=%n" -T "GENRE=%m" -T "COMMENT=%e" %j--picture="%i"%j %s -o %d





TOC of the extracted CD



     Track |   Start  |  Length  | Start sector | End sector 

    ---------------------------------------------------------

        1  |  0:00.00 |  3:57.36 |         0    |    17810   

        2  |  3:57.36 |  4:06.31 |     17811    |    36291   

        3  |  8:03.67 |  3:23.26 |     36292    |    51542   

        4  | 11:27.18 |  3:50.57 |     51543    |    68849   

        5  | 15:18.00 |  3:24.17 |     68850    |    84166   

        6  | 18:42.17 |  3:21.55 |     84167    |    99296   

        7  | 22:03.72 |  3:05.28 |     99297    |   113199   

        8  | 25:09.25 |  3:00.63 |    113200    |   126762   

        9  | 28:10.13 |  5:07.34 |    126763    |   149821   

       10  | 33:17.47 |  3:47.11 |    149822    |   166857   

       11  | 37:04.58 |  5:34.53 |    166858    |   191960   





Track  1



     Filename L:\musica_temp\Kings of Leon - Only by the Night (2008)\Kings of Leon - Only by the Night - 01 - Closer.wav



     Peak level 99.5 %

     Extraction speed 13.4 X

     Track quality 100.0 %

     Copy CRC 2D77BCE5

     Accurately ripped (confidence 22)  [BEEA32C8]

     Copy OK



Track  2



     Filename L:\musica_temp\Kings of Leon - Only by the Night (2008)\Kings of Leon - Only by the Night - 02 - Crawl.wav



     Peak level 99.5 %

     Extraction speed 9.5 X

     Track quality 100.0 %

     Copy CRC D63C7BD6

     Accurately ripped (confidence 22)  [F9080E71]

     Copy OK



Track  3



     Filename L:\musica_temp\Kings of Leon - Only by the Night (2008)\Kings of Leon - Only by the Night - 03 - Sex on Fire.wav



     Peak level 99.5 %

     Extraction speed 9.5 X

     Track quality 99.8 %

     Copy CRC 5D69BC0D

     Accurately ripped (confidence 22)  [59ECCDC3]

     Copy OK



Track  4



     Filename L:\musica_temp\Kings of Leon - Only by the Night (2008)\Kings of Leon - Only by the Night - 04 - Use Somebody.wav



     Peak level 99.5 %

     Extraction speed 12.1 X

     Track quality 99.9 %

     Copy CRC 3F7053FB

     Accurately ripped (confidence 22)  [F6CAB629]

     Copy OK



Track  5



     Filename L:\musica_temp\Kings of Leon - Only by the Night (2008)\Kings of Leon - Only by the Night - 05 - Manhattan.wav



     Peak level 99.5 %

     Extraction speed 16.1 X

     Track quality 100.0 %

     Copy CRC C9387D3C

     Accurately ripped (confidence 23)  [91FEA7E1]

     Copy OK



Track  6



     Filename L:\musica_temp\Kings of Leon - Only by the Night (2008)\Kings of Leon - Only by the Night - 06 - Revelry.wav



     Peak level 99.5 %

     Extraction speed 11.6 X

     Track quality 99.8 %

     Copy CRC 22D0E5B4

     Accurately ripped (confidence 23)  [1B9DCCDC]

     Copy OK



Track  7



     Filename L:\musica_temp\Kings of Leon - Only by the Night (2008)\Kings of Leon - Only by the Night - 07 - 17.wav



     Peak level 99.5 %

     Extraction speed 12.2 X

     Track quality 100.0 %

     Copy CRC 24C90CA9

     Accurately ripped (confidence 23)  [2F019BDC]

     Copy OK



Track  8



     Filename L:\musica_temp\Kings of Leon - Only by the Night (2008)\Kings of Leon - Only by the Night - 08 - Notion.wav



     Peak level 99.5 %

     Extraction speed 11.3 X

     Track quality 100.0 %

     Copy CRC 6E324FED

     Accurately ripped (confidence 23)  [B78C2B49]

     Copy OK



Track  9



     Filename L:\musica_temp\Kings of Leon - Only by the Night (2008)\Kings of Leon - Only by the Night - 09 - I Want You.wav



     Peak level 99.5 %

     Extraction speed 11.6 X

     Track quality 100.0 %

     Copy CRC 5CD27BFE

     Accurately ripped (confidence 23)  [3BD6251D]

     Copy OK



Track 10



     Filename L:\musica_temp\Kings of Leon - Only by the Night (2008)\Kings of Leon - Only by the Night - 10 - Be Somebody.wav



     Peak level 99.5 %

     Extraction speed 19.9 X

     Track quality 100.0 %

     Copy CRC 3F2EC64F

     Accurately ripped (confidence 23)  [0766E6C8]

     Copy OK





Track 11



     Filename L:\musica_temp\Kings of Leon - Only by the Night (2008)\Kings of Leon - Only by the Night - 11 - Cold Desert.wav



     Peak level 99.5 %

     Extraction speed 12.8 X

     Track quality 100.0 %

     Copy CRC CFABE3A8

     Accurately ripped (confidence 23)  [ACEE98CA]

     Copy OK





All tracks accurately ripped



No errors occurred



End of status report
Kings of Leon - Only by the Night (2008)/folder.jpg 37.031 KB
Kings of Leon - Only by the Night (2008)/Kings of Leon - Only by the Night - 01 - Closer.flac 27.484 MB
Kings of Leon - Only by the Night (2008)/Kings of Leon - Only by the Night - 02 - Crawl.flac 29.009 MB
Gathering some info...

Register and log in Isohunt and see no captcha anymore!

4000 symbols left
Hash b5d19cd93961d38e5ba31e6d86f2d75f56d9eaad

Related torrents for "Kings of Leon - Only by the Night (2008) (EAC FLAC CUE) [TNTVillage.org]"

Torrent search:

lossless lossless 2008