Nas and Damian Marley - Distant Relatives (2010) FLAC

Size 439.877 MB   9 seeders     Added 2011-03-01 01:39:14

Stream torrent
Starting‥ You need BitLord! Get it from BitLord.com
8.2
To download or stream you need BitLord. Visit them at BitLord.com
distant-relatives-final.jpg





X Lossless Decoder version 20100511 (119.2)



XLD extraction logfile from 2010-05-14 11:17:31 +0200



Nas & Damian Marley / Distant Relatives



Used drive : MATSHITA CD-RW CW-8124 (revision DACH)



Use cdparanoia mode : YES (CDParanoia III 10.2 engine)

Disable audio cache : OK for the drive with cache less than 2750KB

Make use of C2 pointers : NO

Read offset correction : 102

Max retry count : 100



TOC of the extracted CD

Track | Start | Length | Start sector | End sector
<hr class="bbcode_rule" />
1 | 00:00:00 | 02:28:27 | 0 | 11126

2 | 02:28:27 | 04:30:02 | 11127 | 31378

3 | 06:58:29 | 06:01:35 | 31379 | 58488

4 |...
13. Africa Must Wake Up (feat. Knaan).flac 46.921 MB
03. Strong Will Continue.flac 41.766 MB
07. Dispear.flac 40.992 MB
Gathering some info...

Register and log in Isohunt and see no captcha anymore!

4000 symbols left
Hash 7D2680BCBCFEF004AA1C220697BF60E3432BD498

Related torrents for "Nas and Damian Marley - Distant Relatives (2010) FLAC"

Torrent search:

lossless lossless 2010