Dinocroc vs Supergator 2010 BRRip Xvid AC3 LKRG

Size 956.851 MB   0 seeders     Added 2011-03-01 23:59:59

To download or stream you need BitLord. Visit them at BitLord.com
Video

ID                               : 0

Format                           : MPEG-4 Visual

Format profile                   : Advanced Simple@L5

Format settings, BVOP            : Yes

Format settings, QPel            : No

Format settings, GMC             : No warppoints

Format settings, Matrix          : Default (H.263)

Codec ID                         : XVID

Codec ID/Hint                    : XviD

Duration                         : 1h 26mn

Bit rate                         : 1 099 Kbps

Width                            : 704 pixels

Height                           : 400 pixels

Display aspect ratio             : 16:9

Frame rate                       : 24.000 fps

Color space                      : YUV

Chroma subsampling               : 4:2:0

Bit depth                        : 8 bits

Scan type                        : Progressive

Bits/(Pixel*Frame)               : 0.163

Stream size                      : 677 MiB (74%)

Writing library                  : XviD 1.2.1 (UTC 2008-12-04)



Audio

ID                               : 1

Format                           : AC-3

Format/Info                      : Audio Coding 3

Mode extension                   : CM (complete main)

Codec ID                         : 2000

Duration                         : 1h 26mn

Bit rate mode                    : Constant

Bit rate                         : 384 Kbps

Channel(s)                       : 6 channels

Channel positions                : Front: L C R, Side: L R, LFE

Sampling rate                    : 48.0 KHz

Bit depth                        : 16 bits

Stream size                      : 237 MiB (26%)

Alignment                        : Aligned on interleaves

Interleave, duration             : 32 ms (0.77 video frame)









Scott Kinney  is an American geologist monitoring a local volcano when the Supergator, a Deinosuchus recreated from fossilized, preserved DNA escapes from a secret bio-engineering research center/laboratory. Along the way, it eats many people, including 2 lovers, 3 drunken teens, 3 models, 2 tourists and a fisherman. It also eats Alexandra Steven,  and Ryan Houston 



Kinney joins forces with another scientist  and a Texan alligator hunter . They pursue the monster as it heads down river intent on destroying a luxurious resort packed with hundreds of tourists. Guns and other weapons have no effect on it at all, so they plan a trap for it using a fake volcano. They lure him on to it, with the Texan alligator hunter as live bait. Supergator gets him and is blown up with poisonous gas, strong flames and a shotgun
Dinocroc.vs.Supergator.2010.BRRip Xvid AC3 LKRG.sfv 5.661 KB
LKRGNFO.nfo 8.462 KB
cover.jpg 188.619 KB
Gathering some info...

Register and log in Isohunt and see no captcha anymore!

4000 symbols left
Hash B76A721BF0660A9D1A2EA84AC8A6F81B0CDF5865