Ana Carolina_ Nove mais um[FLAC](Tntvillage)

Size 268.951 MB   8 seeders     Added 2011-03-02 21:03:24

Stream torrent
Starting‥ You need BitLord! Get it from BitLord.com
10
To download or stream you need BitLord. Visit them at BitLord.com
Titolo: Ana Carolina-Nove Mais Um


Lingua: PORTOGHESE 


Anno:21 AGOATO 2009


Genere: Pop


Etichetta: Sony Music


Durata: 38:43

1. Cabide (Luiz Melodia)(3.27)
2. Milhares de Sambas (Roberta Sá)(3.32)
3. Eu que Não Sei Quase Nada do Mar (Maria B.)(3.12)
4. Homens e Mulheres (Ângela Rô Rô)(3.44)
5. Mais que a Mim (Maria Gadú)(4.27)
6. Ruas de Outono (Zizi Possi)(4.00)
7. Tá Rindo, É? (Seu Jorge)(4.00)
8. Torpedo (Gilberto Gil)(4.01)
9. 8 Estórias (4.20)
10. Heroína e Vilã (Antônio Villeroy)(3.53)
[/color]


Dopo il lancio del cd "N9VE", in occasione del suo decimo anno di carriera,Anna Carolina ci presentai più grandi successi della sua carriera in versione rimasterizzate e riviste. Partecipazioni speciali alla rilettura dell cd: Luiz Melodia, Roberta Sá, Maria Bethânia, Ângela Rô Rô, Maria Gadú, Zizi Possi, Seu Jorge, Gilberto Gil, Antônio Villeroy, John Legend, Esperanza Spalding ...


Ana Carolina

Ana Carolina è originaria dello stato brasiliano di Minas Gerias, da cui si trasferisce presto alla volta di Rio de Janeiro, per seguire con determinazione il sogno di diventare musicista. Con lo stile inconfondibile della sua voce e un modo singolare di suonare la chitarra, a quindici giorni dalla sua prima esibizione in città, arriva la firma del suo primo contratto discografico con BGM

Il primo album del 1999 è un lavoro audace ed esplosivo, con il quale Ana Carolina conquista immediatamente il consenso della critica e il successo del pubblico.

Nel suo secondo album è contenuta la grande hit “Quem de nós dois”, cover brasiliana del brano di Grignani, che diventa la canzone più trasmessa in Brasile e porta ad Ana Carolina un numero impressionante di premi, tra cui quello per Best Singer, Best Vocals, insieme al disco d’oro e di platino.
Un successo che continua inarrestabile negli anni successivi: nel 2005 la cantautrice ha venduto oltre un milione di dischi, mentre si susseguono i suoi tour in Brasile, America Latina ed Europa.
Con l’ultimo lavoro del 2009 festeggia dieci anni di carriera, con special guest come John Legend, Seu Jorge, Gilberto Gil e Maria Bethânia. 



lossless FLAC

Exact Audio Copy V1.0 beta 1 from 15. November 2010

EAC extraction logfile from 22. February 2011, 18:47

Ana Carolina / Multishow Registro Ana Car9lina + 1

Used drive : HL-DT-STDVDRAM GSA-T40N Adapter: 0 ID: 0

Read mode : Secure
Utilize accurate stream : Yes
Defeat audio cache : Yes
Make use of C2 pointers : No

Read offset correction : 667
Overread into Lead-In and Lead-Out : No
Fill up missing offset samples with silence : Yes
Delete leading and trailing silent blocks : No
Null samples used in CRC calculations : Yes
Used interface : Native Win32 interface for Win NT & 2000

Used output format : Internal WAV Routines
Sample format : 44.100 Hz; 16 Bit; Stereo


TOC of the extracted CD

Track | Start | Length | Start sector | End sector 
---------------------------------------------------------
1 | 0:00.00 | 3:27.67 | 0 | 15591 
2 | 3:27.67 | 3:31.09 | 15592 | 31425 
3 | 6:59.01 | 3:12.64 | 31426 | 45889 
4 | 10:11.65 | 3:44.17 | 45890 | 62706 
5 | 13:56.07 | 4:27.62 | 62707 | 82793 
6 | 18:23.69 | 4:00.53 | 82794 | 100846 
7 | 22:24.47 | 4:01.04 | 100847 | 118925 
8 | 26:25.51 | 4:01.41 | 118926 | 137041 
9 | 30:27.17 | 4:20.44 | 137042 | 156585 
10 | 34:47.61 | 3:53.46 | 156586 | 174106 


Range status and errors

Selected range

Filename C:\Users\leomarco\Contacts\Desktop\Ana Carolina - Multishow Registro Ana Car9lina + 1.flac

Peak level 98.8 %
Extraction speed 0.3 X
Range quality 100.0 %
Test CRC 487F8256
Copy CRC 487F8256
Copy OK

No errors occurred


AccurateRip summary

Track 1 accurately ripped (confidence 1) [8D885276]
Track 2 accurately ripped (confidence 1) [DB00547A]
Track 3 accurately ripped (confidence 1) [C24E96FD]
Track 4 accurately ripped (confidence 1) [1148F5FC]
Track 5 accurately ripped (confidence 1) [6D74B7EC]
Track 6 accurately ripped (confidence 1) [15368BF3]
Track 7 accurately ripped (confidence 1) [2BC5D20A]
Track 8 accurately ripped (confidence 1) [25C46D2B]
Track 9 accurately ripped (confidence 1) [F8C9A531]
Track 10 accurately ripped (confidence 1) [BE890976]

All tracks accurately ripped

End of status report

==== Log checksum 9F964A05215BE58713BF552EC525ACB27CEA8492DF48B69AD55E88CD85ED4D76 ====
Ana Carolina - Multishow Registro Ana Car9lina + 1.cue 1.395 KB
Ana Carolina - Multishow Registro Ana Car9lina + 1.flac 268.933 MB
Multishow Registro Ana Car9lina + 1.log 16.766 KB
Gathering some info...

Register and log in Isohunt and see no captcha anymore!

4000 symbols left
Hash 2D078682E126BA0FF34FE9A701D2BF7F11A1F952