imdb
rating

7.1
The Adjustment Bureau

The Adjustment Bureau (2011)

Fantasy, Thriller, Romance

Full description
quality   dvdrip dvd telesync cam

The Adjustment Bureau 2011 DVDRip XviD MAXSPEED

Size 909.106 MB   0 seeders     Added 2011-03-05 23:26:18

Stream torrent
Starting‥ You need BitLord! Get it from BitLord.com
To download or stream you need BitLord. Visit them at BitLord.com
[img]http://postimage.org/image/1n7gzj7wk/[/img]


Screens:

[img]http://postimage.org/image/1n7in2kec/[/img]

[img]http://postimage.org/image/1n84522tg/[/img]

[img]http://postimage.org/image/1n82hiqbo/[/img]

[img]http://postimage.org/image/1n80tzdtw/[/img]



Alternative

http://www.imdb.com/title/tt1385826/

ScreenCaps:


[img]http://postimage.org/image/1n7gzj7wk/[/img]

[img]http://postimage.org/image/1n85slfb8/[/img]

[code]




File:The Adjustment Bureau 2011 DVDRip XviD MAXSPEED



Format                           : AVI
Format/Info                      : Audio Video Interleave
Format profile                   : OpenDML
Duration                         : 1h 38mn
Overall bit rate                 : 2 006 Kbps
Writing application              : VirtualDubMod 1.5.10.2 (build 2542/release)
Writing library                  : VirtualDubMod build 2542/release
Original source form             : Gambit
Copyright                        : Gambit Pictures


Video
ID                               : 0
Format                           : MPEG-4 Visual
Format profile                   : AdvancedSimple@L5
Format settings, BVOP            : Yes
Format settings, QPel            : Yes
Format settings, GMC             : No warppoints
Format settings, Matrix          : Default (H.263)
Duration                         : 1h 38mn
Bit rate                         : 1 552 Kbps
Width                            : 720 pixels
Height                           : 304 pixels
Display aspect ratio             : 2.35:1
Frame rate                       : 23.976 fps
Resolution                       : 24 bits
Colorimetry                      : 4:2:0
Scan type                        : Progressive
Bits/(Pixel*Frame)               : 0.296
Stream size                      : 1.07 GiB (87%)


Audio
ID                               : 1
Format                           : AC-3
Format/Info                      : Audio Coding 3
Codec ID                         : 2000
Duration                         : 1h 38mn
Bit rate mode                    : Constant
Bit rate                         : 448 Kbps
Channel(s)                       : 6 channels
Channel positions                : Front: L C R, Surround: L R, LFE
Sampling rate                    : 48.0 KHz
Stream size                      : 316 MiB (22%)
Alignment                        : Aligned on interleaves
Interleave, duration             : 64 ms (1.53 video frames)
Interleave, preload duration     : 192 ms

Source:1080P AVC DTS-HD MA5.1 (perfect a/v/XViD quality-sample is included)

http://www.imdb.com/title/tt1385826/

http://www.postimage.org/ (tnX)

How To Get Your Fullspeed (uTorrent)

Torrent Client - Preferences - Bandwidth - Number of connections - Set aprox. 500 for each
Torrent Client - Preferences - BiTorrent - Protocol Encryption - Forced
Bandwidth Allocation - High (Set download/upload limit - Unlimited)
Stop Other Active Torrents - Start downloading and wait for connections.
Enjoy and Seed for at least 1:1 ratio. Don't forget to say thanks/leave reviews.
Before downloading you should check/google search sample "release name""sample".
Greets to all actual/future p2p/scene QUALITY groups and affiliate websites.
Don't trust IMDb robot or bad ratings,always watch some trailers first.
Ignore stupid comments/fake/mislabeled/no-DVDrips/CAM/TS/RAR uploads.
Please spread this release/torrent to your friends/forums/etc.
If you need translation subs visit some subtitles sites.
Report if you see online streaming or other spam links.
Recommended movie player VLC PLAYER.

Demonoid.com.txt 42 B
MOVIE.nfo 4.858 KB
Subs[ENG].srt 136.693 KB
Gathering some info...

Register and log in Isohunt and see no captcha anymore!

4000 symbols left
Hash A10A8520BE43F9B888F7ED4D2A5B77DFEDF881DA

Related torrents for "The Adjustment Bureau 2011 DVDRip XviD MAXSPEED"

Torrent search:

dvdrip 2011